跛豪[国粤多音轨/简繁英字幕].To.Be.Number.One.1991.BluRay.1080p.x265.10bit.2Audios-MiniHD 7.05GB

版主小s 1月前 189

✔资源类型:暂未分类   ✔电影年份:更 早   ✔电影地区:香港   ✔电影分类:剧情

◎标  题 跛豪
◎译  名 To Be Number One
◎年  代 1991
◎产  地 中国香港
◎类  别 剧情 / 传记 / 犯罪
◎语  言 粤语
◎上映日期 1991-04-15(中国香港)
◎IMDb评分 7.2/10 (608人评价)
◎IMDb链接 https://www.imdb.com/title/tt0101490/
◎豆瓣评分 8.3/10 (71001人评价)
◎豆瓣链接 https://movie.douban.com/subject/1296272/
◎片  长 143分钟
◎导  演 潘文杰 Man Kit Poon
◎编  剧 麦当雄 Johnny Mak
       萧若元 Stephen Siu
       陈慎芝 San-Chi Chan
       李英杰 Ying Kit Lee
◎演  员 吕良伟 Ray Lui
       郑则仕 Kent Cheng
       叶童 Cecilia Yip
       叶子楣 Amy Yip
       李子雄 Waise Lee
       吴启华 Lawrence Ng
       黄光亮 Kwong Leung Wong
       徐锦江 Elvis Tsui
       曾江 Kenneth Tsang
       罗烈 Lieh Lo
       吴孟达 Man Tat Ng
       刘洵 Shun Lau
       刘江 Kong Lau
       江欣燕 Elvina Kong
       陈荣宗 Dickens Chan
       钟发 Fat Chung
       韩坤 Victor Hon Kwan
       陈治良 Frankie Chin
       吴廷烨 Berg Ng
       吴丽珠 Lily Ng Lai Chu
       钱似莺 Tsi-Ang Chin
       黄智强 Ji Keung Wong
       古慧珍 Wai Jan Goo
       骆达华 Tat-Wah Lok
       林迪安 Dion Lam
       雷达 Tat Lui
       卫青 Sing Wai
       林华勋 Jameson Wa-Fan Lam
       李英杰 Ying Kit Lee
       黄树棠 Shu Tong Wong
       黄金棠 Kam-Tong Wong
       麦鹤顿 Houghton Mark
       谭伟民 Wai-Man Tam
       梁心 Hsin Liang
       黄仲渠 Chung Kui Wong
       何永祥 Wing Cheung Ho
       曾醒光 Seng-Kwong Chang
       蔡宪章 Hsian-chang Tsai
       陈汉文 Hon Man Chan
       任达华 Simon Yam
       侯焕玲 Woon Ling Hau
       何添 Tim Ho
       林富伟 Fu-wai Lam
       秦贵宝 Kwai Po Chun
       麦当雄 Johnny Mak
       萧若元 Stephen Siu
       乐易玲 Virginia Lok
       钟国基 Perry Chung
       陈永良 Wing-leung Chan
       鲍德熹 Peter Pau
       潘雄 Hung Poon
       陈日刚 Yat-kong Chan
       高先明 Sing Ming Ko
       罗礼贤 Bruce Law

◎简  介
  1962年,内地正值经济困难时期,随难民潮逃到香港的汕头青年吴国豪(吕良伟)因不甘被黑帮欺凌,投靠黑帮大佬肥波(郑则士),几场拼命的血战后,他被肥波重用,在黑帮中确立下地位,势力越来越大。                                    
                                渐感威胁的肥波设局令吴国豪被毒枭追杀,虽没使其毙命,却也让其残了一条腿,但他自己 终被对方设计陷害锒铛入狱。靠雷总华探长夺位,吴国豪接下肥波所有地盘,成为黑帮四大家族之首,又因他愿出钱替为其效劳的警界中人买探长做,警署成为他贩毒的保护伞。然而随着1973年(香港成立廉政公署)的临近,加上他因位高权重狂妄自大导致众叛亲离,其运势开始一路下滑。
  1. ##### MediaInfo ######
  2. General
  3. Unique ID                                : 338700623434906725765832507468096805632 (0xFECF5E066DB2817E92AF59232FB91B00)
  4. Complete name                            : To.Be.Number.One.1991.BluRay.1080p.x265.10bit.2Audios-MiniHD.mkv
  5. Format                                   : Matroska
  6. Format version                           : Version 4
  7. File size                                : 7.05 GiB
  8. Duration                                 : 2 h 22 min
  9. Overall bit rate                         : 7 061 kb/s
  10. Encoded date                             : UTC 2018-01-24 15:12:07
  11. Writing application                      : mkvmerge v20.0.0 ('I Am The Sun') 64-bit
  12. Writing library                          : libebml v1.3.5 + libmatroska v1.4.8
  13. Video
  14. ID                                       : 1
  15. Format                                   : HEVC
  16. Format/Info                              : High Efficiency Video Coding
  17. Format profile                           : Main 10@L4@High
  18. Codec ID                                 : V_MPEGH/ISO/HEVC
  19. Duration                                 : 2 h 22 min
  20. Bit rate                                 : 5 709 kb/s
  21. Width                                    : 1 920 pixels
  22. Height                                   : 814 pixels
  23. Display aspect ratio                     : 2.35:1
  24. Frame rate mode                          : Constant
  25. Frame rate                               : 23.976 (24000/1001/53354) FPS
  26. Color space                              : YUV
  27. Chroma subsampling                       : 4:2:0
  28. Bit depth                                : 10 bits
  29. Bits/(Pixel*Frame)                       : 0.152
  30. Stream size                              : 5.70 GiB (81%)
  31. Title                                    : 视频轨
  32. Default                                  : Yes
  33. Forced                                   : No
  34. Color range                              : Limited
  35. Color primaries                          : BT.709
  36. Audio #1
  37. ID                                       : 2
  38. Format                                   : AC-3
  39. Format/Info                              : Audio Coding 3
  40. Commercial name                          : Dolby Digital
  41. Codec ID                                 : A_AC3
  42. Duration                                 : 2 h 22 min
  43. Bit rate mode                            : Constant
  44. Bit rate                                 : 640 kb/s
  45. Channel(s)                               : 6 channels
  46. Channel layout                           : L R C LFE Ls Rs
  47. Sampling rate                            : 48.0 kHz
  48. Frame rate                               : 31.250 FPS (1536 SPF)
  49. Compression mode                         : Lossy
  50. Stream size                              : 654 MiB (9%)
  51. Title                                    : 粤语ac3-5.1@6440kbps
  52. Language                                 : Chinese
  53. Service kind                             : Complete Main
  54. Default                                  : Yes
  55. Forced                                   : No
  56. Audio #2
  57. ID                                       : 3
  58. Format                                   : AC-3
  59. Format/Info                              : Audio Coding 3
  60. Commercial name                          : Dolby Digital
  61. Codec ID                                 : A_AC3
  62. Duration                                 : 2 h 22 min
  63. Bit rate mode                            : Constant
  64. Bit rate                                 : 640 kb/s
  65. Channel(s)                               : 6 channels
  66. Channel layout                           : L R C LFE Ls Rs
  67. Sampling rate                            : 48.0 kHz
  68. Frame rate                               : 31.250 FPS (1536 SPF)
  69. Compression mode                         : Lossy
  70. Stream size                              : 654 MiB (9%)
  71. Title                                    : 国语ac3-5.1@6440kbps
  72. Language                                 : Chinese
  73. Service kind                             : Complete Main
  74. Default                                  : No
  75. Forced                                   : No
  76. Text #1
  77. ID                                       : 4
  78. Format                                   : PGS
  79. Muxing mode                              : zlib
  80. Codec ID                                 : S_HDMV/PGS
  81. Codec ID/Info                            : Picture based subtitle format used on BDs/HD-DVDs
  82. Duration                                 : 2 h 17 min
  83. Bit rate                                 : 24.0 kb/s
  84. Count of elements                        : 3372
  85. Stream size                              : 23.6 MiB (0%)
  86. Title                                    : 国配简体
  87. Language                                 : Chinese
  88. Default                                  : Yes
  89. Forced                                   : No
  90. Text #2
  91. ID                                       : 5
  92. Format                                   : PGS
  93. Muxing mode                              : zlib
  94. Codec ID                                 : S_HDMV/PGS
  95. Codec ID/Info                            : Picture based subtitle format used on BDs/HD-DVDs
  96. Duration                                 : 2 h 17 min
  97. Bit rate                                 : 25.5 kb/s
  98. Count of elements                        : 3372
  99. Stream size                              : 25.0 MiB (0%)
  100. Title                                    : 国配繁体
  101. Language                                 : Chinese
  102. Default                                  : No
  103. Forced                                   : No
  104. Text #3
  105. ID                                       : 6
  106. Format                                   : PGS
  107. Muxing mode                              : zlib
  108. Codec ID                                 : S_HDMV/PGS
  109. Codec ID/Info                            : Picture based subtitle format used on BDs/HD-DVDs
  110. Duration                                 : 2 h 18 min
  111. Bit rate                                 : 24.3 kb/s
  112. Count of elements                        : 3484
  113. Stream size                              : 24.0 MiB (0%)
  114. Title                                    : 粤配简体
  115. Language                                 : Chinese
  116. Default                                  : No
  117. Forced                                   : No
  118. Text #4
  119. ID                                       : 7
  120. Format                                   : PGS
  121. Muxing mode                              : zlib
  122. Codec ID                                 : S_HDMV/PGS
  123. Codec ID/Info                            : Picture based subtitle format used on BDs/HD-DVDs
  124. Duration                                 : 2 h 18 min
  125. Bit rate                                 : 42.2 kb/s
  126. Count of elements                        : 3485
  127. Stream size                              : 41.7 MiB (1%)
  128. Title                                    : 粤配繁体
  129. Language                                 : Chinese
  130. Default                                  : No
  131. Forced                                   : No
  132. Text #5
  133. ID                                       : 8
  134. Format                                   : PGS
  135. Muxing mode                              : zlib
  136. Codec ID                                 : S_HDMV/PGS
  137. Codec ID/Info                            : Picture based subtitle format used on BDs/HD-DVDs
  138. Duration                                 : 2 h 18 min
  139. Bit rate                                 : 33.8 kb/s
  140. Count of elements                        : 3485
  141. Stream size                              : 33.5 MiB (0%)
  142. Title                                    : 英语
  143. Language                                 : English
  144. Default                                  : No
  145. Forced                                   : No
  146. Menu
  147. 00:00:00.000                             : en:Chapter 01
  148. 00:07:27.530                             : en:Chapter 02
  149. 00:16:45.004                             : en:Chapter 03
  150. 00:23:22.276                             : en:Chapter 04
  151. 00:31:40.690                             : en:Chapter 05
  152. 00:38:08.912                             : en:Chapter 06
  153. 00:45:07.872                             : en:Chapter 07
  154. 00:53:55.858                             : en:Chapter 08
  155. 01:01:42.866                             : en:Chapter 09
  156. 01:08:55.882                             : en:Chapter 10
  157. 01:15:39.285                             : en:Chapter 11
  158. 01:20:25.529                             : en:Chapter 12
  159. 01:27:10.183                             : en:Chapter 13
  160. 01:36:26.030                             : en:Chapter 14
  161. 01:44:21.964                             : en:Chapter 15
  162. 01:49:27.394                             : en:Chapter 16
  163. 01:57:40.178                             : en:Chapter 17
  164. 02:05:50.626                             : en:Chapter 18
  165. 02:11:54.073                             : en:Chapter 19
  166. 02:19:06.672                             : en:Chapter 20
  167. 02:22:57.360                             : en:Chapter 21





此处一般会放置磁力链或种子下载链接,不过此链接需要注册会员才能看到,点击“立即注册”
磁力链下载【下载链接仅对注册会员开放,登陆后可见】
BT9527电影天堂 1、BT9527电影天堂提供的BT文件均来源于互联网抓取,只供网友学习交流、技术提升使用。
2、我们遵守BitTorrent点对点协议原则,任何版权问题请联系原资源发布商,我们不处理任何版权纠纷,谢谢!如有争议请联系邮箱:BT9527#hotmail.com(#换成@)
3、如果您发现某页面或地址有错误,请联系站长邮箱BT9527#hotmail.com(#换成@),我们会尽快处理。您的热心是对BT9527电影天堂最大的支持。
4、本站建议去正规影院观看电影以支持电影行业发展。
最新回复 (0)

你可以在 登录 or 注册 后,对此帖发表评论!

返回
发新帖