超级大国民[国语音轨/简繁英字幕].Super.Citizen.Ko.1995.BluRay.1080p.x265.10bit-MiniHD 5.52GB

版主小s 1月前 115

✔资源类型:暂未分类   ✔电影年份:更 早   ✔电影地区:台湾   ✔电影分类:剧情

◎标  题 超级大国民
◎译  名 Super Citizen Ko
◎片  名 超級大國民
◎年  代 1995
◎产  地 中国台湾 / 中国大陆
◎类  别 剧情 / 历史
◎语  言 闽南语
◎上映日期 1996-09-13
◎IMDb评分 6.7/10 (230人评价)
◎IMDb链接 https://www.imdb.com/title/tt0112659/
◎豆瓣评分 7.7/10 (550人评价)
◎豆瓣链接 https://movie.douban.com/subject/1307459/
◎片  长 121分钟
◎导  演 万仁 Wan Jen
◎编  剧 廖庆松 Ching-Song Liao
       万仁 Wan Jen
◎演  员 林扬 Yang Lin
       苏明明 Ming-ming Su
       柯一正 I-Chen Ko
       陈秋燕 Chiu-Yen Chen

◎标  签 台湾 / 台湾电影 / 万仁 / 历史 / 1995 / 政治 / 吴念真 / 台灣電影

◎简  介
    许毅生,一位50年代参与政治读书会而被判无期徒刑的老人,在当年抓人过程中出卖好友陈政一,以致陈被,枪决而下落不明。许关满16年出狱后,因愧疚而自囚于养老院10多年。他搬回女儿秀琴家中后,开始一一探访难友。此时,秀琴之夫因贿选而遭羁押禁见,秀琴情绪终于爆发,重提父亲因政治而被判终身狱,与母亲离婚,导致母亲自杀,秀琴自小孤苦伶仃。许对女儿的责难,无言以对。之后许终于寻获陈之墓地,跪拜烧冥纸求恕后,返回家中已心力交瘁,入门即累倒在地,秀琴扶老父入房,无意中翻见桌上日记,始体会父亲多年来对老友、妻女之愧歉,望见床上奄奄一息老父……
  1. ##### MediaInfo ######
  2. General
  3. Unique ID                                : 90433771743411462358399265225425271571 (0x4408E930A413C76734B2363EDA3BBB13)
  4. Complete name                            : Super.Citizen.Ko.1995.BluRay.1080p.x265.10bit-MiniHD.mkv
  5. Format                                   : Matroska
  6. Format version                           : Version 4
  7. File size                                : 5.52 GiB
  8. Duration                                 : 2 h 0 min
  9. Overall bit rate                         : 6 578 kb/s
  10. Encoded date                             : UTC 2018-03-14 16:59:46
  11. Writing application                      : mkvmerge v20.0.0 ('I Am The Sun') 64-bit
  12. Writing library                          : libebml v1.3.5 + libmatroska v1.4.8
  13. Video
  14. ID                                       : 1
  15. Format                                   : HEVC
  16. Format/Info                              : High Efficiency Video Coding
  17. Format profile                           : Main 10@L4@Main
  18. Codec ID                                 : V_MPEGH/ISO/HEVC
  19. Duration                                 : 2 h 0 min
  20. Bit rate                                 : 5 807 kb/s
  21. Width                                    : 1 920 pixels
  22. Height                                   : 1 036 pixels
  23. Display aspect ratio                     : 1.85:1
  24. Frame rate mode                          : Constant
  25. Frame rate                               : 24.000 FPS
  26. Color space                              : YUV
  27. Chroma subsampling                       : 4:2:0
  28. Bit depth                                : 10 bits
  29. Bits/(Pixel*Frame)                       : 0.122
  30. Stream size                              : 4.87 GiB (88%)
  31. Writing library                          : x265 2.7+1-2aa737a99f51:[Windows][GCC 7.3.0][64 bit] 10bit
  32. Encoding settings                        : cpuid=533541173503 / frame-threads=3 / numa-pools=8 / wpp / no-pmode / no-pme / no-psnr / no-ssim / log-level=2 / csv / csv-log-level=0 / input-csp=1 / input-res=1920x1036 / interlace=0 / total-frames=172985 / level-idc=0 / high-tier=1 / uhd-bd=0 / ref=5 / no-allow-non-conformance / no-repeat-headers / annexb / no-aud / no-hrd / info / hash=0 / no-temporal-layers / no-open-gop / min-keyint=1 / keyint=360 / gop-lookahead=0 / bframes=9 / b-adapt=2 / b-pyramid / bframe-bias=0 / rc-lookahead=60 / lookahead-slices=4 / NTMzNTQ=uuDQuD2mJt9fsCf / scenecut=40 / radl=0 / no-intra-refresh / ctu=32 / min-cu-size=8 / rect / no-amp / max-tu-size=16 / tu-inter-depth=2 / tu-intra-depth=2 / limit-tu=4 / rdoq-level=1 / dynamic-rd=0.00 / ssim-rd / signhide / no-tskip / nr-intra=0 / nr-inter=0 / no-constrained-intra / no-strong-intra-smoothing / max-merge=3 / limit-refs=2 / limit-modes / me=3 / subme=5 / merange=25 / temporal-mvp / weightp / weightb / no-analyze-src-pics / deblock=-1:-1 / no-sao / no-sao-non-deblock / rd=4 / no-early-skip / rskip / no-fast-intra / no-tskip-fast / no-cu-lossless / b-intra / no-splitrd-skip / rdpenalty=1 / psy-rd=0.00 / psy-rdoq=5.00 / no-rd-refine / no-lossless / cbqpoffs=-2 / crqpoffs=-2 / rc=crf / crf=20.0 / qcomp=0.70 / qpstep=4 / stats-write=0 / stats-read=0 / ipratio=1.40 / pbratio=1.30 / aq-mode=1 / aq-strength=0.80 / cutree / zone-count=0 / no-strict-cbr / qg-size=16 / no-rc-grain / qpmax=69 / qpmin=0 / no-const-vbv / sar=0 / overscan=0 / videoformat=5 / range=0 / colorprim=1 / transfer=2 / colormatrix=2 / chromaloc=0 / display-window=0 / max-cll=0,0 / min-luma=0 / max-luma=1023 / log2-max-poc-lsb=8 / vui-timing-info / vui-hrd-info / slices=1 / no-opt-qp-pps / no-opt-ref-list-length-pps / no-multi-pass-opt-rps / scenecut-bias=0.05 / no-opt-cu-delta-qp / no-aq-motion / no-hdr / no-hdr-opt / no-dhdr10-opt / analysis-reuse-level=5 / scale-factor=0 / refine-intra=0 / refine-inter=0 / refine-mv=0 / no-limit-sao / ctu-info=0 / no-lowpass-dct / refine-mv-type=0 / copy-pic=1
  33. Language                                 : Chinese
  34. Default                                  : Yes
  35. Forced                                   : No
  36. Color range                              : Limited
  37. Color primaries                          : BT.709
  38. Audio
  39. ID                                       : 2
  40. Format                                   : AC-3
  41. Format/Info                              : Audio Coding 3
  42. Commercial name                          : Dolby Digital
  43. Codec ID                                 : A_AC3
  44. Duration                                 : 2 h 0 min
  45. Bit rate mode                            : Constant
  46. Bit rate                                 : 640 kb/s
  47. Channel(s)                               : 2 channels
  48. Channel layout                           : L R
  49. Sampling rate                            : 48.0 kHz
  50. Frame rate                               : 31.250 FPS (1536 SPF)
  51. Compression mode                         : Lossy
  52. Stream size                              : 550 MiB (10%)
  53. Title                                    : 国语
  54. Language                                 : Chinese
  55. Service kind                             : Complete Main
  56. Default                                  : Yes
  57. Forced                                   : No
  58. Text #1
  59. ID                                       : 3
  60. Format                                   : PGS
  61. Muxing mode                              : zlib
  62. Codec ID                                 : S_HDMV/PGS
  63. Codec ID/Info                            : Picture based subtitle format used on BDs/HD-DVDs
  64. Title                                    : 繁体
  65. Language                                 : Chinese
  66. Default                                  : Yes
  67. Forced                                   : No
  68. Text #2
  69. ID                                       : 4
  70. Format                                   : PGS
  71. Muxing mode                              : zlib
  72. Codec ID                                 : S_HDMV/PGS
  73. Codec ID/Info                            : Picture based subtitle format used on BDs/HD-DVDs
  74. Title                                    : 简体
  75. Language                                 : Chinese
  76. Default                                  : No
  77. Forced                                   : No
  78. Text #3
  79. ID                                       : 5
  80. Format                                   : PGS
  81. Muxing mode                              : zlib
  82. Codec ID                                 : S_HDMV/PGS
  83. Codec ID/Info                            : Picture based subtitle format used on BDs/HD-DVDs
  84. Title                                    : 英文
  85. Language                                 : English
  86. Default                                  : No
  87. Forced                                   : No
  88. Menu
  89. 00:00:00.000                             : en:Chapter 01
  90. 00:19:17.666                             : en:Chapter 02
  91. 00:38:42.875                             : en:Chapter 03
  92. 00:59:37.875                             : en:Chapter 04
  93. 01:19:08.833                             : en:Chapter 05
  94. 01:39:26.375                             : en:Chapter 06





此处一般会放置磁力链或种子下载链接,不过此链接需要注册会员才能看到,点击“立即注册”
磁力链下载【下载链接仅对注册会员开放,登陆后可见】
BT9527电影天堂 1、BT9527电影天堂提供的BT文件均来源于互联网抓取,只供网友学习交流、技术提升使用。
2、我们遵守BitTorrent点对点协议原则,任何版权问题请联系原资源发布商,我们不处理任何版权纠纷,谢谢!如有争议请联系邮箱:BT9527#hotmail.com(#换成@)
3、如果您发现某页面或地址有错误,请联系站长邮箱BT9527#hotmail.com(#换成@),我们会尽快处理。您的热心是对BT9527电影天堂最大的支持。
4、本站建议去正规影院观看电影以支持电影行业发展。
最新回复 (0)

你可以在 登录 or 注册 后,对此帖发表评论!

返回
发新帖