警察故事4:简单任务[国英多音轨/简繁英字幕].Police.Story.IV.First.Strike.1996.BluRay.1080p.x265.10bit.3Audio-MiniHD 4.86GB

版主小s 1月前 92

✔资源类型:暂未分类   ✔电影年份:更 早   ✔电影地区:香港   ✔电影分类:喜剧

◎标  题 警察故事4:简单任务
◎译  名 白金龙 / First Strike / Police Story 4: First Strike
◎片  名 警察故事4之簡單任務
◎年  代 1996
◎产  地 中国香港
◎类  别 喜剧 / 动作 / 犯罪
◎语  言 英语 / 粤语 / 汉语普通话 / 俄语 / 乌克兰语
◎上映日期 1996-02-10(中国香港)
◎IMDb评分 6.6/10 (20485人评价)
◎IMDb链接 https://www.imdb.com/title/tt0116704/
◎豆瓣评分 7.5/10 (35065人评价)
◎豆瓣链接 https://movie.douban.com/subject/1296947/
◎片  长 107分钟(香港) / 84分钟(蓝光版)
◎导  演 唐季礼 Stanley Tong
◎编  剧 格雷格·梅洛特 Greg Mellott
       唐铭基 Elliot Tong
       唐季礼 Stanley Tong
       尼克·特拉蒙坦恩 Nick Tramontane
◎演  员 成龙 Jackie Chan
       董骠 Bill Tung
       楼学贤 Jackson Lau Hok-Yin
       吴辰君 Annie Wu
       卢惠光 Ken Lo
       史蒂夫·莫里斯 Steve Morris
       阿伦·西尔曼 Alan Shearman
       格雷格·梅洛特 Greg Mellott
       肯德里克·休斯 Kendrick Hughes
       布里奇特·霍夫曼 Bridget Hoffman
       段伟伦 William Duan
       吉恩·吉尔平 Jean Gilpin
       尼尔·迪克森 Neil Dickson
       苏菲·福米嘉 Sofie Formica
       安德烈·胡勒斯 Endre Hules
       黎强根 Rocky Lai
       李元霸 Conan Lee
       内森·琼斯 Nathan Jones
       诺娜·格丽莎娃 Nonna Grishaeva
       马丁·贾维斯 Martin Jarvis
       尤里·彼得罗夫 Yuri Petrov
       保罗·佩普 Paul Pape
       伯顿·夏普 Burton Sharp
       亚历克斯·维多夫 Alex Veadov
       拉里莎·埃瑞米娜 Larisa Eryomina
       薛春炜 Ailen Sit
       罗莎琳·艾尔斯 Rosalind Ayres
       奥列格·维多夫 Oleg Vidov

◎标  签 成龙 / 动作 / 香港 / 香港电影 / 喜剧 / 警匪 / 唐季礼 / 1996

◎简  介
    这次,国际警察陈家驹(成龙 饰)受到美国中央情报局的委托,调查一个国际核子武器的贩卖集团。上司与家驹开始都以为是天荒夜谈,他们根本不相信有什么组织能从黑市里搞来核子武器,认为调查的只是一群乌合之众。然而,当家驹跟踪疑犯徐杰进行交易,进而意外发现了乌克兰的核弹基地,他才意 识到事态严重。                                    
                                  交易的双方发现了家驹,他逃走时失足掉入了冰湖,幸得俄军相救才侥幸活命。家驹恢复后俄军上校格里格派往澳洲追查徐杰的妹妹安妮(吴辰君 饰)。但家驹刚抵达澳洲,就遭到了当地黑帮的追杀,家驹隐隐感到事件背后不简单。
  1. ##### MediaInfo ######
  2. General
  3. Unique ID                                : 287413330377651177058180578811446290667 (0xD839CB3F96BB37B3CD3DF1FE527FE8EB)
  4. Complete name                            : Police.Story.IV.First.Strike.1996.BluRay.1080p.x265.10bit.3Audio-MiniHD.mkv
  5. Format                                   : Matroska
  6. Format version                           : Version 4
  7. File size                                : 4.86 GiB
  8. Duration                                 : 1 h 23 min
  9. Overall bit rate                         : 8 294 kb/s
  10. Encoded date                             : UTC 2018-01-22 06:16:57
  11. Writing application                      : mkvmerge v20.0.0 ('I Am The Sun') 64-bit
  12. Writing library                          : libebml v1.3.5 + libmatroska v1.4.8
  13. Video
  14. ID                                       : 1
  15. Format                                   : HEVC
  16. Format/Info                              : High Efficiency Video Coding
  17. Format profile                           : Main 10@L4@High
  18. Codec ID                                 : V_MPEGH/ISO/HEVC
  19. Duration                                 : 1 h 23 min
  20. Bit rate                                 : 7 105 kb/s
  21. Width                                    : 1 920 pixels
  22. Height                                   : 792 pixels
  23. Display aspect ratio                     : 2.40:1
  24. Frame rate mode                          : Constant
  25. Frame rate                               : 23.976 (24000/1001/53354) FPS
  26. Color space                              : YUV
  27. Chroma subsampling                       : 4:2:0
  28. Bit depth                                : 10 bits
  29. Bits/(Pixel*Frame)                       : 0.195
  30. Stream size                              : 4.16 GiB (86%)
  31. Writing library                          : x265 2.6+31-3712d13c09bf:[Windows][MSVC 1900][64 bit] 10bit
  32. Encoding settings                        : cpuid=533541173503 / frame-threads=2 / numa-pools=4 / wpp / no-pmode / no-pme / no-psnr / no-ssim / log-level=2 / input-csp=1 / input-res=1920x792 / interlace=0 / total-frames=120601 / level-idc=0 / high-tier=1 / uhd-bd=0 / ref=5 / no-allow-non-conformance / no-repeat-headers / annexb / no-aud / no-hrd / info / hash=0 / no-temporal-layers / no-open-gop / min-keyint=1 / keyint=360 / gop-lookahead=0 / bframes=9 / b-adapt=2 / b-pyramid / bframe-bias=0 / rc-lookahead=60 / lookahead-slices=4 / NTMzNTQ=uuDQuD2mJt9fsCf / scenecut=40 / radl=0 / no-intra-refresh / ctu=32 / min-cu-size=8 / no-rect / no-amp / max-tu-size=16 / tu-inter-depth=2 / tu-intra-depth=2 / limit-tu=4 / rdoq-level=1 / dynamic-rd=0.00 / ssim-rd / signhide / no-tskip / nr-intra=0 / nr-inter=0 / no-constrained-intra / no-strong-intra-smoothing / max-merge=3 / limit-refs=2 / limit-modes / me=3 / subme=5 / merange=25 / temporal-mvp / weightp / weightb / no-analyze-src-pics / deblock=-1:-1 / no-sao / no-sao-non-deblock / rd=4 / no-early-skip / rskip / no-fast-intra / no-tskip-fast / no-cu-lossless / b-intra / no-splitrd-skip / rdpenalty=1 / psy-rd=0.00 / psy-rdoq=1.50 / no-rd-refine / no-lossless / cbqpoffs=-2 / crqpoffs=-2 / rc=abr / bitrate=7200 / qcomp=0.70 / qpstep=4 / stats-write=0 / stats-read=2 / cplxblur=20.0 / qblur=0.5 / vbv-maxrate=28000 / vbv-bufsize=30000 / vbv-init=0.9 / ipratio=1.40 / pbratio=1.30 / aq-mode=2 / aq-strength=0.80 / cutree / zone-count=0 / no-strict-cbr / qg-size=16 / no-rc-grain / qpmax=69 / qpmin=0 / no-const-vbv / sar=0 / overscan=0 / videoformat=5 / range=0 / colorprim=1 / transfer=2 / colormatrix=2 / chromaloc=0 / display-window=0 / max-cll=0,0 / min-luma=0 / max-luma=1023 / log2-max-poc-lsb=8 / vui-timing-info / vui-hrd-info / slices=1 / no-opt-qp-pps / no-opt-ref-list-length-pps / no-multi-pass-opt-rps / scenecut-bias=0.05 / no-opt-cu-delta-qp / no-aq-motion / no-hdr / no-hdr-opt / no-dhdr10-opt / analysis-reuse-level=5 / scale-factor=0 / refine-intra=0 / refine-inter=0 / refine-mv=0 / no-limit-sao / ctu-info=0 / no-lowpass-dct / refine-mv-type=0 / copy-pic=1
  33. Default                                  : Yes
  34. Forced                                   : No
  35. Color range                              : Limited
  36. Color primaries                          : BT.709
  37. Audio #1
  38. ID                                       : 2
  39. Format                                   : AC-3
  40. Format/Info                              : Audio Coding 3
  41. Commercial name                          : Dolby Digital
  42. Codec ID                                 : A_AC3
  43. Duration                                 : 1 h 23 min
  44. Bit rate mode                            : Constant
  45. Bit rate                                 : 192 kb/s
  46. Channel(s)                               : 2 channels
  47. Channel layout                           : L R
  48. Sampling rate                            : 48.0 kHz
  49. Frame rate                               : 31.250 FPS (1536 SPF)
  50. Compression mode                         : Lossy
  51. Stream size                              : 115 MiB (2%)
  52. Title                                    : 原音
  53. Language                                 : Chinese
  54. Service kind                             : Complete Main
  55. Default                                  : Yes
  56. Forced                                   : No
  57. Audio #2
  58. ID                                       : 3
  59. Format                                   : AC-3
  60. Format/Info                              : Audio Coding 3
  61. Commercial name                          : Dolby Digital
  62. Codec ID                                 : A_AC3
  63. Duration                                 : 1 h 23 min
  64. Bit rate mode                            : Constant
  65. Bit rate                                 : 192 kb/s
  66. Channel(s)                               : 2 channels
  67. Channel layout                           : L R
  68. Sampling rate                            : 48.0 kHz
  69. Frame rate                               : 31.250 FPS (1536 SPF)
  70. Compression mode                         : Lossy
  71. Stream size                              : 115 MiB (2%)
  72. Title                                    : 国语音轨
  73. Language                                 : Chinese
  74. Service kind                             : Complete Main
  75. Default                                  : No
  76. Forced                                   : No
  77. Audio #3
  78. ID                                       : 4
  79. Format                                   : AC-3
  80. Format/Info                              : Audio Coding 3
  81. Commercial name                          : Dolby Digital
  82. Codec ID                                 : A_AC3
  83. Duration                                 : 1 h 23 min
  84. Bit rate mode                            : Constant
  85. Bit rate                                 : 640 kb/s
  86. Channel(s)                               : 6 channels
  87. Channel layout                           : L R C LFE Ls Rs
  88. Sampling rate                            : 48.0 kHz
  89. Frame rate                               : 31.250 FPS (1536 SPF)
  90. Compression mode                         : Lossy
  91. Stream size                              : 384 MiB (8%)
  92. Title                                    : 英语音轨
  93. Language                                 : English
  94. Service kind                             : Complete Main
  95. Default                                  : No
  96. Forced                                   : No
  97. Text #1
  98. ID                                       : 5
  99. Format                                   : PGS
  100. Muxing mode                              : zlib
  101. Codec ID                                 : S_HDMV/PGS
  102. Codec ID/Info                            : Picture based subtitle format used on BDs/HD-DVDs
  103. Title                                    : 原盘繁体
  104. Language                                 : Chinese
  105. Default                                  : Yes
  106. Forced                                   : No
  107. Text #2
  108. ID                                       : 6
  109. Format                                   : PGS
  110. Muxing mode                              : zlib
  111. Codec ID                                 : S_HDMV/PGS
  112. Codec ID/Info                            : Picture based subtitle format used on BDs/HD-DVDs
  113. Title                                    : English
  114. Language                                 : English
  115. Default                                  : No
  116. Forced                                   : No
  117. Text #3
  118. ID                                       : 7
  119. Format                                   : PGS
  120. Muxing mode                              : zlib
  121. Codec ID                                 : S_HDMV/PGS
  122. Codec ID/Info                            : Picture based subtitle format used on BDs/HD-DVDs
  123. Title                                    : 追加简体(黑边)
  124. Language                                 : Chinese
  125. Default                                  : No
  126. Forced                                   : No
  127. Text #4
  128. ID                                       : 8
  129. Format                                   : PGS
  130. Muxing mode                              : zlib
  131. Codec ID                                 : S_HDMV/PGS
  132. Codec ID/Info                            : Picture based subtitle format used on BDs/HD-DVDs
  133. Title                                    : 追加繁体(黑边)
  134. Language                                 : Chinese
  135. Default                                  : No
  136. Forced                                   : No
  137. Text #5
  138. ID                                       : 9
  139. Format                                   : PGS
  140. Muxing mode                              : zlib
  141. Codec ID                                 : S_HDMV/PGS
  142. Codec ID/Info                            : Picture based subtitle format used on BDs/HD-DVDs
  143. Title                                    : 追加简体(画面)
  144. Language                                 : Chinese
  145. Default                                  : No
  146. Forced                                   : No
  147. Text #6
  148. ID                                       : 10
  149. Format                                   : PGS
  150. Muxing mode                              : zlib
  151. Codec ID                                 : S_HDMV/PGS
  152. Codec ID/Info                            : Picture based subtitle format used on BDs/HD-DVDs
  153. Title                                    : 追加繁体(画面)
  154. Language                                 : Chinese
  155. Default                                  : No
  156. Forced                                   : No
  157. Menu
  158. 00:00:00.000                             : en:00:00:00.000
  159. 00:00:15.682                             : en:00:00:15.682
  160. 00:02:05.792                             : en:00:02:05.792
  161. 00:03:45.142                             : en:00:03:45.142
  162. 00:09:48.755                             : en:00:09:48.755
  163. 00:15:20.253                             : en:00:15:20.253
  164. 00:23:44.256                             : en:00:23:44.256
  165. 00:26:17.785                             : en:00:26:17.785
  166. 00:33:18.538                             : en:00:33:18.538
  167. 00:36:05.330                             : en:00:36:05.330
  168. 00:40:59.624                             : en:00:40:59.624
  169. 00:45:09.165                             : en:00:45:09.165
  170. 00:48:46.507                             : en:00:48:46.507
  171. 00:54:01.572                             : en:00:54:01.572
  172. 00:56:32.764                             : en:00:56:32.764
  173. 01:05:27.382                             : en:01:05:27.382
  174. 01:07:32.257                             : en:01:07:32.257
  175. 01:11:21.360                             : en:01:11:21.360
  176. 01:14:58.285                             : en:01:14:58.285
  177. 01:17:08.374                             : en:01:17:08.374
  178. 01:19:35.938                             : en:01:19:35.938





此处一般会放置磁力链或种子下载链接,不过此链接需要注册会员才能看到,点击“立即注册”
磁力链下载【下载链接仅对注册会员开放,登陆后可见】
BT9527电影天堂 1、BT9527电影天堂提供的BT文件均来源于互联网抓取,只供网友学习交流、技术提升使用。
2、我们遵守BitTorrent点对点协议原则,任何版权问题请联系原资源发布商,我们不处理任何版权纠纷,谢谢!如有争议请联系邮箱:BT9527#hotmail.com(#换成@)
3、如果您发现某页面或地址有错误,请联系站长邮箱BT9527#hotmail.com(#换成@),我们会尽快处理。您的热心是对BT9527电影天堂最大的支持。
4、本站建议去正规影院观看电影以支持电影行业发展。
最新回复 (0)

你可以在 登录 or 注册 后,对此帖发表评论!

返回
发新帖