青春誓言[简繁英字幕].Testament.of.Youth.2014.BluRay.1080p.x265.10bit-MiniHD 4.66GB

版主小s 1月前 97

✔资源类型:暂未分类   ✔电影年份:2014   ✔电影地区:欧美   ✔电影分类:剧情

◎标  题 青春誓言
◎译  名 青春作证
◎片  名 Testament of Youth
◎年  代 2014
◎产  地 英国
◎类  别 剧情 / 传记 / 历史 / 战争
◎语  言 英语 / 德语
◎上映日期 2015-01-16(英国)
◎IMDb评分 7.3/10 (28245人评价)
◎IMDb链接 https://www.imdb.com/title/tt1441953/
◎豆瓣评分 7.1/10 (2916人评价)
◎豆瓣链接 https://movie.douban.com/subject/10756517/
◎片  长 129分钟
◎导  演 詹姆斯·肯特 James Kent
◎编  剧 朱丽叶·托希迪 Juliette Towhidi
       薇拉·布里坦 Vera Brittain
◎演  员 艾丽西亚·维坎德 Alicia Vikander
       基特·哈灵顿 Kit Harington
       塔伦·埃哲顿 Taron Egerton
       艾米丽·沃森 Emily Watson
       海莉·阿特维尔 Hayley Atwell
       科林·摩根 Colin Morgan
       米兰达·理查森 Miranda Richardson
       多米尼克·韦斯特 Dominic West
       安娜·钱斯勒 Anna Chancellor
       尼古拉斯·勒·普雷沃斯特 Nicholas Le Prevost
       尼古拉斯·法瑞尔 Nicholas Farrell
       乔纳森·贝利 Jonathan Bailey
       夏洛特·霍普 Charlotte Hope
       艾米莉·贝文 Emily Bevan
       乔安娜·斯坎伦 Joanna Scanlan
       泽维尔·阿特金斯 Xavier Atkins
       阿曼达·费尔班克-海恩斯 Amanda Fairbank-Hynes
       特蕾莎·邱吉尔 Teresa Churcher
       黛西·沃特斯通 Daisy Waterstone
       瑞秋·雷德福 Rachel Redford
       朱莉·沃洛诺 Julie Vollono
       乔林·科伊 Jolyon Coy
       马克斯·李希特 Max Richter
       罗伯·哈迪 Rob Hardy

◎标  签 英国 / 战争 / 传记 / 英国电影 / 爱情 / 剧情 / 2015 / BBC

◎简  介
  影片改编自英国女作家维拉·布里顿(Vera Brittain)成书于1933年的同名回忆录改编,回顾了她本人在一战期间的生活经历,以及她走向反战主义的心路历程。片中布里顿本人由瑞典新星艾丽西卡·维坎德饰演,哈灵顿将出演她的初恋情人。
  1. ##### MediaInfo ######
  2. General
  3. Unique ID                                : 209142499052975345343869910100811925159 (0x9D576151F8472813B1D4299D0D0746A7)
  4. Complete name                            : Testament.of.Youth.2014.BluRay.1080p.x265.10bit-MiniHD.mkv
  5. Format                                   : Matroska
  6. Format version                           : Version 4
  7. File size                                : 4.66 GiB
  8. Duration                                 : 2 h 9 min
  9. Overall bit rate                         : 5 147 kb/s
  10. Encoded date                             : UTC 2018-02-25 14:29:35
  11. Writing application                      : mkvmerge v8.5.2 ('Crosses') 32bit
  12. Writing library                          : libebml v1.3.3 + libmatroska v1.4.4
  13. Video
  14. ID                                       : 1
  15. Format                                   : HEVC
  16. Format/Info                              : High Efficiency Video Coding
  17. Format profile                           : Main 10@L4@Main
  18. Codec ID                                 : V_MPEGH/ISO/HEVC
  19. Duration                                 : 2 h 9 min
  20. Bit rate                                 : 4 475 kb/s
  21. Width                                    : 1 920 pixels
  22. Height                                   : 802 pixels
  23. Display aspect ratio                     : 2.40:1
  24. Frame rate mode                          : Constant
  25. Frame rate                               : 23.976 (24000/1001/53354) FPS
  26. Color space                              : YUV
  27. Chroma subsampling                       : 4:2:0
  28. Bit depth                                : 10 bits
  29. Bits/(Pixel*Frame)                       : 0.121
  30. Stream size                              : 4.06 GiB (87%)
  31. Writing library                          : x265 2.6+31-3712d13c09bf:[Windows][MSVC 1912][64 bit] 10bit
  32. Encoding settings                        : cpuid=533541173503 / frame-threads=2 / numa-pools=4 / wpp / no-pmode / no-pme / no-psnr / no-ssim / log-level=2 / input-csp=1 / input-res=1920x802 / interlace=0 / total-frames=186630 / level-idc=0 / high-tier=1 / uhd-bd=0 / ref=5 / no-allow-non-conformance / no-repeat-headers / annexb / no-aud / no-hrd / info / hash=0 / no-temporal-layers / no-open-gop / min-keyint=1 / keyint=360 / gop-lookahead=0 / bframes=8 / b-adapt=2 / b-pyramid / bframe-bias=0 / rc-lookahead=60 / lookahead-slices=4 / NTMzNTQ=uuDQuD2mJt9fsCf / scenecut=40 / radl=0 / no-intra-refresh / ctu=32 / min-cu-size=8 / no-rect / no-amp / max-tu-size=16 / tu-inter-depth=2 / tu-intra-depth=2 / limit-tu=4 / rdoq-level=2 / dynamic-rd=0.00 / ssim-rd / signhide / no-tskip / nr-intra=0 / nr-inter=0 / no-constrained-intra / no-strong-intra-smoothing / max-merge=3 / limit-refs=2 / limit-modes / me=3 / subme=5 / merange=25 / temporal-mvp / weightp / weightb / no-analyze-src-pics / deblock=-1:-1 / no-sao / no-sao-non-deblock / rd=4 / no-early-skip / no-rskip / no-fast-intra / no-tskip-fast / no-cu-lossless / b-intra / no-splitrd-skip / rdpenalty=1 / psy-rd=0.00 / psy-rdoq=5.00 / no-rd-refine / no-lossless / cbqpoffs=-2 / crqpoffs=-2 / rc=crf / crf=18.5 / qcomp=0.66 / qpstep=4 / stats-write=0 / stats-read=0 / ipratio=1.40 / pbratio=1.30 / aq-mode=2 / aq-strength=0.80 / cutree / zone-count=0 / no-strict-cbr / qg-size=16 / no-rc-grain / qpmax=69 / qpmin=0 / no-const-vbv / sar=1 / overscan=0 / videoformat=5 / range=0 / colorprim=1 / transfer=2 / colormatrix=2 / chromaloc=0 / display-window=0 / max-cll=0,0 / min-luma=0 / max-luma=1023 / log2-max-poc-lsb=8 / vui-timing-info / vui-hrd-info / slices=1 / no-opt-qp-pps / no-opt-ref-list-length-pps / no-multi-pass-opt-rps / scenecut-bias=0.05 / no-opt-cu-delta-qp / no-aq-motion / no-hdr / no-hdr-opt / no-dhdr10-opt / analysis-reuse-level=5 / scale-factor=0 / refine-intra=0 / refine-inter=0 / refine-mv=0 / no-limit-sao / ctu-info=0 / no-lowpass-dct / refine-mv-type=0 / copy-pic=1
  33. Default                                  : Yes
  34. Forced                                   : No
  35. Color range                              : Limited
  36. Color primaries                          : BT.709
  37. Audio
  38. ID                                       : 2
  39. Format                                   : AC-3
  40. Format/Info                              : Audio Coding 3
  41. Commercial name                          : Dolby Digital
  42. Codec ID                                 : A_AC3
  43. Duration                                 : 2 h 9 min
  44. Bit rate mode                            : Constant
  45. Bit rate                                 : 640 kb/s
  46. Channel(s)                               : 6 channels
  47. Channel layout                           : L R C LFE Ls Rs
  48. Sampling rate                            : 48.0 kHz
  49. Frame rate                               : 31.250 FPS (1536 SPF)
  50. Compression mode                         : Lossy
  51. Stream size                              : 594 MiB (12%)
  52. Service kind                             : Complete Main
  53. Default                                  : Yes
  54. Forced                                   : No
  55. Text #1
  56. ID                                       : 3
  57. Format                                   : PGS
  58. Muxing mode                              : zlib
  59. Codec ID                                 : S_HDMV/PGS
  60. Codec ID/Info                            : Picture based subtitle format used on BDs/HD-DVDs
  61. Duration                                 : 2 h 1 min
  62. Bit rate                                 : 12.1 kb/s
  63. Count of elements                        : 1954
  64. Stream size                              : 10.5 MiB (0%)
  65. Title                                    : CHT
  66. Language                                 : Chinese
  67. Default                                  : No
  68. Forced                                   : No
  69. Text #2
  70. ID                                       : 4
  71. Format                                   : PGS
  72. Muxing mode                              : zlib
  73. Codec ID                                 : S_HDMV/PGS
  74. Codec ID/Info                            : Picture based subtitle format used on BDs/HD-DVDs
  75. Duration                                 : 2 h 1 min
  76. Bit rate                                 : 11.0 kb/s
  77. Count of elements                        : 1954
  78. Stream size                              : 9.62 MiB (0%)
  79. Title                                    : CHS
  80. Language                                 : Chinese
  81. Default                                  : Yes
  82. Forced                                   : Yes
  83. Text #3
  84. ID                                       : 5
  85. Format                                   : PGS
  86. Muxing mode                              : zlib
  87. Codec ID                                 : S_HDMV/PGS
  88. Codec ID/Info                            : Picture based subtitle format used on BDs/HD-DVDs
  89. Duration                                 : 2 h 1 min
  90. Bit rate                                 : 8 635 b/s
  91. Count of elements                        : 2440
  92. Stream size                              : 7.50 MiB (0%)
  93. Title                                    : ENG
  94. Language                                 : English
  95. Default                                  : No
  96. Forced                                   : No
  97. Menu
  98. 00:00:00.000                             : en:00:00:00.000
  99. 00:10:38.763                             : en:00:10:38.763
  100. 00:20:37.695                             : en:00:20:37.695
  101. 00:30:48.263                             : en:00:30:48.263
  102. 00:39:06.344                             : en:00:39:06.344
  103. 00:50:45.751                             : en:00:50:45.751
  104. 01:00:15.529                             : en:01:00:15.529
  105. 01:09:32.460                             : en:01:09:32.460
  106. 01:19:41.026                             : en:01:19:41.026
  107. 01:31:14.010                             : en:01:31:14.010
  108. 01:39:57.116                             : en:01:39:57.116
  109. 01:51:01.071                             : en:01:51:01.071





此处一般会放置磁力链或种子下载链接,不过此链接需要注册会员才能看到,点击“立即注册”
磁力链下载【下载链接仅对注册会员开放,登陆后可见】
BT9527电影天堂 1、BT9527电影天堂提供的BT文件均来源于互联网抓取,只供网友学习交流、技术提升使用。
2、我们遵守BitTorrent点对点协议原则,任何版权问题请联系原资源发布商,我们不处理任何版权纠纷,谢谢!如有争议请联系邮箱:BT9527#hotmail.com(#换成@)
3、如果您发现某页面或地址有错误,请联系站长邮箱BT9527#hotmail.com(#换成@),我们会尽快处理。您的热心是对BT9527电影天堂最大的支持。
4、本站建议去正规影院观看电影以支持电影行业发展。
最新回复 (0)

你可以在 登录 or 注册 后,对此帖发表评论!

返回
发新帖