雷神3:诸神黄昏[国英多音轨/简繁字幕].Thor.Ragnarok.2017.BluRay.1080p.x265.10bit.2Audios-MiniHD 5.80GB

版主小s 1月前 83

✔资源类型:暂未分类   ✔电影年份:2017   ✔电影地区:欧美   ✔电影分类:动作

◎标  题 雷神3:诸神黄昏
◎译  名 雷神奇侠3:诸神黄昏(港) / 雷神索尔3:诸神黄昏(台) / 雷神3:诸神的黄昏 / Thor 3
◎片  名 Thor: Ragnarok
◎年  代 2017
◎产  地 美国
◎类  别 动作 / 奇幻 / 冒险
◎语  言 英语
◎上映日期 2017-11-03(美国/中国大陆) / 2017-10-24(英国)
◎IMDb评分 7.9/10 (661119人评价)
◎IMDb链接 https://www.imdb.com/title/tt3501632/
◎豆瓣评分 7.4/10 (376647人评价)
◎豆瓣链接 https://movie.douban.com/subject/25821634/
◎片  长 130分钟
◎导  演 塔伊加·维迪提 Taika Waititi
◎编  剧 埃里克·皮尔森 Eric Pearson
       克雷格·凯尔 Craig Kyle
       克里斯托弗·约斯特 Christopher Yost
       斯坦·李 Stan Lee
       拉里·利伯 Larry Lieber
       杰克·科比 Jack Kirby
◎演  员 克里斯·海姆斯沃斯 Chris Hemsworth
       汤姆·希德勒斯顿 Tom Hiddleston
       凯特·布兰切特 Cate Blanchett
       伊德里斯·艾尔巴 Idris Elba
       杰夫·高布伦 Jeff Goldblum
       泰莎·汤普森 Tessa Thompson
       卡尔·厄本 Karl Urban
       马克·鲁弗洛 Mark Ruffalo
       安东尼·霍普金斯 Anthony Hopkins
       本尼迪克特·康伯巴奇 Benedict Cumberbatch
       塔伊加·维迪提 Taika Waititi
       瑞切尔·豪斯 Rachel House
       克兰西·布朗 Clancy Brown
       浅野忠信 Tadanobu Asano
       雷·史蒂文森 Ray Stevenson
       扎克瑞·莱维 Zachary Levi
       卢克·海姆斯沃斯 Luke Hemsworth
       马特·达蒙 Matt Damon
       山姆·尼尔 Sam Neill
       夏洛特·尼克道 Charlotte Nicdao
       斯坦·李 Stan Lee
       史蒂文·奥利弗 Steven Oliver
       天海祐希 Yuki Amami
       乔治亚·布利扎德 Georgia Blizzard
       罗勃·梅耶斯 Rob Mayes
       科恩·霍洛维 Cohen Holloway
       凯文·费奇 Kevin Feige
       维多利亚·阿隆索 Victoria Alonso
       斯坦·李 Stan Lee
       路易斯·德·埃斯波西托 Louis D'Esposito
       Brian Chapek Brian Chapek
       Thomas M. Hammel Thomas M. Hammel
       马克·马瑟斯鲍夫 Mark Mothersbaugh
       玛耶斯·C·鲁贝奥 Mayes C. Rubeo
       劳拉·丹德里奇 Laura Dandridge
       瑞恩·艾伦 Ryan Allen
       马可·伍斯特 Marco Wuest
       伊万·雅格布斯 Evan Jacobs
       奥·布里克 Ed Ulbrich
       丹妮丝巴兰坦 Denise Ballantyne
       内森·里奇 Nathan Rich
       戴维·温斯坦 David Weinstein
       丹尼·冈萨雷斯 Danny Gonzalez
       迈克尔·狄龙 Michael Dillon
       拉斐尔·皮门特尔 Raphael A. Pimentel
       鲍比·霍兰德·汉顿 Bobby Holland Hanton

◎标  签 漫威 / 雷神 / 超级英雄 / 美国 / Marvel / 科幻 / 2017 / 漫画改编

◎简  介
  在“索科维亚战役”两年后,雷神索尔(克里斯·海姆斯沃斯 Chris Hemsworth 饰)识破了洛基(汤姆·希德勒斯顿 Tom Hiddleston 饰)的伪装,辗转找到了被放逐到地球的奥丁(安东尼·霍普金斯 Anthony Hopkins 饰)。然而垂死的奥丁却告知两个儿子,“诸神的黄昏”已经开始,曾遭到奥丁封禁的死亡女神海拉(凯特·布兰切特 Cate Blanchett 饰)即将重返阿斯加德。与海拉的初次对决中,索尔失去了雷神之锤,他和洛基也被打落至混乱不堪的萨卡星。在萨卡的决斗场上,索尔重逢失踪许久的绿巨人,也见到了曾从海拉魔爪下逃得一生的女武神。                                    
                                历经千辛万苦,索尔和战友们重返阴云密布的阿斯加德,去正视这注定要到来的“诸神的黄昏”……
  1. ##### MediaInfo ######
  2. General
  3. Unique ID                                : 176864816618007460740840122934831019866 (0x850EECB56CAA51E4C4E13B2B05D2F75A)
  4. Complete name                            : Thor.Ragnarok.2017.BluRay.1080p.x265.10bit.2Audios-MiniHD.mkv
  5. Format                                   : Matroska
  6. Format version                           : Version 4
  7. File size                                : 5.80 GiB
  8. Duration                                 : 2 h 11 min
  9. Overall bit rate                         : 6 327 kb/s
  10. Encoded date                             : UTC 2018-02-23 10:47:57
  11. Writing application                      : mkvmerge v20.0.0 ('I Am The Sun') 64-bit
  12. Writing library                          : libebml v1.3.5 + libmatroska v1.4.8
  13. Video
  14. ID                                       : 1
  15. Format                                   : HEVC
  16. Format/Info                              : High Efficiency Video Coding
  17. Format profile                           : Main 10@L4@High
  18. Codec ID                                 : V_MPEGH/ISO/HEVC
  19. Duration                                 : 2 h 10 min
  20. Bit rate                                 : 4 967 kb/s
  21. Width                                    : 1 920 pixels
  22. Height                                   : 804 pixels
  23. Display aspect ratio                     : 2.40:1
  24. Frame rate mode                          : Constant
  25. Frame rate                               : 23.976 (24000/1001/53354) FPS
  26. Color space                              : YUV
  27. Chroma subsampling                       : 4:2:0
  28. Bit depth                                : 10 bits
  29. Bits/(Pixel*Frame)                       : 0.134
  30. Stream size                              : 4.53 GiB (78%)
  31. Title                                    : 视频
  32. Default                                  : Yes
  33. Forced                                   : No
  34. Color range                              : Limited
  35. Color primaries                          : BT.709
  36. Transfer characteristics                 : BT.709
  37. Matrix coefficients                      : BT.709
  38. Audio #1
  39. ID                                       : 2
  40. Format                                   : AC-3
  41. Format/Info                              : Audio Coding 3
  42. Commercial name                          : Dolby Digital
  43. Codec ID                                 : A_AC3
  44. Duration                                 : 2 h 10 min
  45. Bit rate mode                            : Constant
  46. Bit rate                                 : 640 kb/s
  47. Channel(s)                               : 6 channels
  48. Channel layout                           : L R C LFE Ls Rs
  49. Sampling rate                            : 48.0 kHz
  50. Frame rate                               : 31.250 FPS (1536 SPF)
  51. Compression mode                         : Lossy
  52. Stream size                              : 597 MiB (10%)
  53. Title                                    : 英语AC3-5.1@640kbps
  54. Language                                 : English
  55. Service kind                             : Complete Main
  56. Default                                  : Yes
  57. Forced                                   : No
  58. Audio #2
  59. ID                                       : 3
  60. Format                                   : AC-3
  61. Format/Info                              : Audio Coding 3
  62. Commercial name                          : Dolby Digital
  63. Codec ID                                 : A_AC3
  64. Duration                                 : 2 h 10 min
  65. Bit rate mode                            : Constant
  66. Bit rate                                 : 640 kb/s
  67. Channel(s)                               : 6 channels
  68. Channel layout                           : L R C LFE Ls Rs
  69. Sampling rate                            : 48.0 kHz
  70. Frame rate                               : 31.250 FPS (1536 SPF)
  71. Compression mode                         : Lossy
  72. Stream size                              : 597 MiB (10%)
  73. Title                                    : 国语AC3-5.1@640kbps
  74. Language                                 : Chinese
  75. Service kind                             : Complete Main
  76. Default                                  : No
  77. Forced                                   : No
  78. Text #1
  79. ID                                       : 4
  80. Format                                   : PGS
  81. Muxing mode                              : zlib
  82. Codec ID                                 : S_HDMV/PGS
  83. Codec ID/Info                            : Picture based subtitle format used on BDs/HD-DVDs
  84. Duration                                 : 2 h 11 min
  85. Bit rate                                 : 30.3 kb/s
  86. Count of elements                        : 2875
  87. Stream size                              : 28.5 MiB (0%)
  88. Title                                    : 简中
  89. Language                                 : Chinese
  90. Default                                  : No
  91. Forced                                   : No
  92. Text #2
  93. ID                                       : 5
  94. Format                                   : PGS
  95. Muxing mode                              : zlib
  96. Codec ID                                 : S_HDMV/PGS
  97. Codec ID/Info                            : Picture based subtitle format used on BDs/HD-DVDs
  98. Duration                                 : 2 h 11 min
  99. Bit rate                                 : 31.6 kb/s
  100. Count of elements                        : 2875
  101. Stream size                              : 29.6 MiB (0%)
  102. Title                                    : 繁中
  103. Language                                 : Chinese
  104. Default                                  : No
  105. Forced                                   : No
  106. Text #3
  107. ID                                       : 6
  108. Format                                   : PGS
  109. Muxing mode                              : zlib
  110. Codec ID                                 : S_HDMV/PGS
  111. Codec ID/Info                            : Picture based subtitle format used on BDs/HD-DVDs
  112. Duration                                 : 2 h 11 min
  113. Bit rate                                 : 52.4 kb/s
  114. Count of elements                        : 2876
  115. Stream size                              : 49.2 MiB (1%)
  116. Title                                    : 简英
  117. Default                                  : Yes
  118. Forced                                   : No
  119. Text #4
  120. ID                                       : 7
  121. Format                                   : PGS
  122. Muxing mode                              : zlib
  123. Codec ID                                 : S_HDMV/PGS
  124. Codec ID/Info                            : Picture based subtitle format used on BDs/HD-DVDs
  125. Duration                                 : 2 h 11 min
  126. Bit rate                                 : 53.8 kb/s
  127. Count of elements                        : 2876
  128. Stream size                              : 50.5 MiB (1%)
  129. Title                                    : 繁英
  130. Default                                  : No
  131. Forced                                   : No
  132. Text #5
  133. ID                                       : 8
  134. Format                                   : PGS
  135. Muxing mode                              : zlib
  136. Codec ID                                 : S_HDMV/PGS
  137. Codec ID/Info                            : Picture based subtitle format used on BDs/HD-DVDs
  138. Duration                                 : 2 h 10 min
  139. Bit rate                                 : 38.1 kb/s
  140. Count of elements                        : 4162
  141. Stream size                              : 35.5 MiB (1%)
  142. Title                                    : 英语SDH
  143. Default                                  : No
  144. Forced                                   : No
  145. Menu
  146. 00:00:00.000                             : en:Chapter 01
  147. 00:06:20.672                             : en:Chapter 02
  148. 00:14:11.642                             : en:Chapter 03
  149. 00:22:12.873                             : en:Chapter 04
  150. 00:26:43.060                             : en:Chapter 05
  151. 00:31:29.721                             : en:Chapter 06
  152. 00:35:03.935                             : en:Chapter 07
  153. 00:42:49.734                             : en:Chapter 08
  154. 00:48:31.534                             : en:Chapter 09
  155. 00:59:38.784                             : en:Chapter 10
  156. 01:07:57.907                             : en:Chapter 11
  157. 01:17:30.604                             : en:Chapter 12
  158. 01:27:25.323                             : en:Chapter 13
  159. 01:36:08.721                             : en:Chapter 14
  160. 01:42:35.733                             : en:Chapter 15
  161. 01:49:19.887                             : en:Chapter 16
  162. 01:54:57.599                             : en:Chapter 17
  163. 02:00:37.522                             : en:Chapter 18
  164. 02:10:30.448                             : en:Chapter 19





此处一般会放置磁力链或种子下载链接,不过此链接需要注册会员才能看到,点击“立即注册”
磁力链下载【下载链接仅对注册会员开放,登陆后可见】
BT9527电影天堂 1、BT9527电影天堂提供的BT文件均来源于互联网抓取,只供网友学习交流、技术提升使用。
2、我们遵守BitTorrent点对点协议原则,任何版权问题请联系原资源发布商,我们不处理任何版权纠纷,谢谢!如有争议请联系邮箱:BT9527#hotmail.com(#换成@)
3、如果您发现某页面或地址有错误,请联系站长邮箱BT9527#hotmail.com(#换成@),我们会尽快处理。您的热心是对BT9527电影天堂最大的支持。
4、本站建议去正规影院观看电影以支持电影行业发展。
最新回复 (0)

你可以在 登录 or 注册 后,对此帖发表评论!

返回
发新帖