阅后即焚[简繁字幕].Burn.After.Reading.2008.BluRay.1080p.x265.10bit-MiniHD 4.48GB

版主小s 1月前 126

✔资源类型:暂未分类   ✔电影年份:2008   ✔电影地区:欧美   ✔电影分类:剧情

◎标  题 阅后即焚
◎译  名 CIA光碟离奇失窃案(港) / 即刻毁灭(台)
◎片  名 Burn After Reading
◎年  代 2008
◎产  地 美国 / 英国 / 法国
◎类  别 剧情 / 喜剧 / 犯罪
◎语  言 英语
◎上映日期 2008-08-27(威尼斯电影节) / 2008-09-12(美国)
◎IMDb评分 7/10 (322829人评价)
◎IMDb链接 https://www.imdb.com/title/tt0887883/
◎豆瓣评分 7.1/10 (77732人评价)
◎豆瓣链接 https://movie.douban.com/subject/2054933/
◎片  长 96分钟
◎导  演 伊桑·科恩 Ethan Coen
       乔尔·科恩 Joel Coen
◎编  剧 乔尔·科恩 Joel Coen
       伊桑·科恩 Ethan Coen
◎演  员 乔治·克鲁尼 George Clooney
       约翰·马尔科维奇 John Malkovich
       蒂尔达·斯文顿 Tilda Swinton
       弗兰西斯·麦克多蒙德 Frances McDormand
       布拉德·皮特 Brad Pitt
       J·K·西蒙斯 J.K. Simmons
       凯文·苏斯曼 Kevin Sussman
       大卫·拉斯彻 David Rasche
       理查德·詹金斯 Richard Jenkins
       伊丽莎白·玛维尔 Elizabeth Marvel
       汉密尔顿·克兰西 Hamilton Clancy
       蒂姆·贝文 Tim Bevan
       埃里克·菲尔纳 Eric Fellner
       伊桑·科恩 Ethan Coen
       乔尔·科恩 Joel Coen
       卡特·伯韦尔 Carter Burwell
       艾曼努尔·卢贝兹基  Emmanuel Lubezki
       乔尔·科恩 Joel Coen
       伊桑·科恩 Ethan Coen
       Ellen Chenoweth Ellen Chenoweth
       David Swayze David Swayze
       南茜·黑格 Nancy Haigh
       林戴尔·奎尤 Lyndell Quiyou
       琼·安·布兰克 Jean Ann Black
       约翰·西尔维斯特 John Silvestri
       巴克·德洛姆 Bac DeLorme
       贝齐·马格鲁德尔 Betsy Magruder
       理查德·弗里德兰德尔 Richard Friedlander
       埃里克·J·罗伯特森 Eric J. Robertson

◎标  签 黑色幽默 / 科恩兄弟 / 美国 / BradPitt / 喜剧 / 美国电影 / GeorgeClooney / 2008

◎简  介
  本片根据曾于1977年至1981年间担任美国中央情报局局长的斯坦菲尔德·特纳的小说《高度机密:总统、中情局局长和特工》改编而成。                                       
                                    Osbourne(约翰·马尔科维奇 John Malkovich 饰)是CIA的资深分析员,因酗酒问题被开除。沮丧的Osbourne回到家中又不被老婆重视。他妻子Katie(蒂尔达·斯文顿 Tilda Swinton 饰)是个冷冰冰的职业医生,与财政部的Harry(乔治·克鲁尼 George Clooney 饰)偷情,在船上共度春光。Osbourne赌咒写一本自传来透露CIA的高极机密,却被一心想跟自己离婚的Katie错拿去记录调查自己的财政报告,后又不慎落在了健身房。被傻里傻气的健身房女员工Linda(弗兰西斯·麦克多蒙德 Frances McDormand 饰)和稍有点二百五的健身教练Chad(布拉德·皮特 Brad ...
  1. ##### MediaInfo ######
  2. General
  3. Unique ID                                : 207574359707021571008456601446435212295 (0x9C295E14C9549BFC1CA4D41C21B34C07)
  4. Complete name                            : Burn.After.Reading.2008.BluRay.1080p.x265.10bit-MiniHD.mkv
  5. Format                                   : Matroska
  6. Format version                           : Version 4
  7. File size                                : 4.48 GiB
  8. Duration                                 : 1 h 35 min
  9. Overall bit rate                         : 6 680 kb/s
  10. Encoded date                             : UTC 2018-02-22 12:29:47
  11. Writing application                      : mkvmerge v20.0.0 ('I Am The Sun') 64-bit
  12. Writing library                          : libebml v1.3.5 + libmatroska v1.4.8
  13. Video
  14. ID                                       : 1
  15. Format                                   : HEVC
  16. Format/Info                              : High Efficiency Video Coding
  17. Format profile                           : Main 10@L4@High
  18. Codec ID                                 : V_MPEGH/ISO/HEVC
  19. Duration                                 : 1 h 35 min
  20. Bit rate                                 : 6 011 kb/s
  21. Width                                    : 1 920 pixels
  22. Height                                   : 1 044 pixels
  23. Display aspect ratio                     : 1.85:1
  24. Frame rate mode                          : Constant
  25. Frame rate                               : 23.976 (24000/1001/53354) FPS
  26. Color space                              : YUV
  27. Chroma subsampling                       : 4:2:0
  28. Bit depth                                : 10 bits
  29. Bits/(Pixel*Frame)                       : 0.125
  30. Stream size                              : 4.03 GiB (90%)
  31. Title                                    : 视频
  32. Default                                  : Yes
  33. Forced                                   : No
  34. Color range                              : Limited
  35. Color primaries                          : BT.709
  36. Transfer characteristics                 : BT.709
  37. Matrix coefficients                      : BT.709
  38. Audio
  39. ID                                       : 2
  40. Format                                   : AC-3
  41. Format/Info                              : Audio Coding 3
  42. Commercial name                          : Dolby Digital
  43. Codec ID                                 : A_AC3
  44. Duration                                 : 1 h 35 min
  45. Bit rate mode                            : Constant
  46. Bit rate                                 : 640 kb/s
  47. Channel(s)                               : 6 channels
  48. Channel layout                           : L R C LFE Ls Rs
  49. Sampling rate                            : 48.0 kHz
  50. Frame rate                               : 31.250 FPS (1536 SPF)
  51. Compression mode                         : Lossy
  52. Stream size                              : 439 MiB (10%)
  53. Title                                    : 英语AC3-5.1@640kbps
  54. Language                                 : English
  55. Service kind                             : Complete Main
  56. Default                                  : Yes
  57. Forced                                   : No
  58. Text #1
  59. ID                                       : 3
  60. Format                                   : PGS
  61. Muxing mode                              : zlib
  62. Codec ID                                 : S_HDMV/PGS
  63. Codec ID/Info                            : Picture based subtitle format used on BDs/HD-DVDs
  64. Duration                                 : 1 h 29 min
  65. Bit rate                                 : 25.7 kb/s
  66. Count of elements                        : 2037
  67. Stream size                              : 16.5 MiB (0%)
  68. Title                                    : 简中
  69. Language                                 : Chinese
  70. Default                                  : Yes
  71. Forced                                   : No
  72. Text #2
  73. ID                                       : 4
  74. Format                                   : PGS
  75. Muxing mode                              : zlib
  76. Codec ID                                 : S_HDMV/PGS
  77. Codec ID/Info                            : Picture based subtitle format used on BDs/HD-DVDs
  78. Duration                                 : 1 h 29 min
  79. Bit rate                                 : 26.1 kb/s
  80. Count of elements                        : 2037
  81. Stream size                              : 16.7 MiB (0%)
  82. Title                                    : 繁中
  83. Language                                 : Chinese
  84. Default                                  : No
  85. Forced                                   : No





此处一般会放置磁力链或种子下载链接,不过此链接需要注册会员才能看到,点击“立即注册”
磁力链下载【下载链接仅对注册会员开放,登陆后可见】
BT9527电影天堂 1、BT9527电影天堂提供的BT文件均来源于互联网抓取,只供网友学习交流、技术提升使用。
2、我们遵守BitTorrent点对点协议原则,任何版权问题请联系原资源发布商,我们不处理任何版权纠纷,谢谢!如有争议请联系邮箱:BT9527#hotmail.com(#换成@)
3、如果您发现某页面或地址有错误,请联系站长邮箱BT9527#hotmail.com(#换成@),我们会尽快处理。您的热心是对BT9527电影天堂最大的支持。
4、本站建议去正规影院观看电影以支持电影行业发展。
最新回复 (0)

你可以在 登录 or 注册 后,对此帖发表评论!

返回
发新帖