银翼杀手2049[简繁英字幕].Blade.Runner.2049.2017.BluRay.1080p.x265.10bit-MiniHD 4.97GB

版主小s 1月前 89

✔资源类型:暂未分类   ✔电影年份:2017   ✔电影地区:欧美   ✔电影分类:剧情

◎标  题 银翼杀手2049
◎译  名 银翼杀手2 / Blade Runner 2
◎片  名 Blade Runner 2049
◎年  代 2017
◎产  地 美国 / 英国 / 加拿大 / 匈牙利 / 西班牙 / 墨西哥
◎类  别 剧情 / 动作 / 科幻
◎语  言 英语 / 芬兰语 / 日语 / 匈牙利语 / 俄语 / 西班牙语
◎上映日期 2017-10-27(中国大陆) / 2017-10-06(美国)
◎IMDb评分 8/10 (515103人评价)
◎IMDb链接 https://www.imdb.com/title/tt1856101/
◎豆瓣评分 8.3/10 (415605人评价)
◎豆瓣链接 https://movie.douban.com/subject/10512661/
◎片  长 163分钟 / 162分钟(中国大陆)
◎导  演 丹尼斯·维伦纽瓦 Denis Villeneuve
◎编  剧 汉普顿·范彻 Hampton Fancher
       迈克尔·格林 Michael Green
       菲利普·迪克 Philip K. Dick
◎演  员 瑞恩·高斯林 Ryan Gosling
       哈里森·福特 Harrison Ford
       安娜·德·阿玛斯 Ana de Armas
       西尔维娅·侯克斯 Sylvia Hoeks
       罗宾·怀特 Robin Wright
       杰瑞德·莱托 Jared Leto
       戴夫·巴蒂斯塔 Dave Bautista
       麦肯兹·戴维斯 Mackenzie Davis
       卡拉·朱里 Carla Juri
       爱德华·詹姆斯·奥莫斯 Edward James Olmos
       巴克德·阿巴蒂 Barkhad Abdi
       大卫·达斯马齐连 David Dastmalchian
       西娅姆·阿巴斯 Hiam Abbass
       连尼·詹姆斯 Lennie James
       马克·阿诺德 Mark Arnold
       肖恩·杨 Sean Young
       斯戴芬·莫昌特 Stephen Merchant
       克里斯塔·科索恩 Krista Kosonen
       萨莉·哈姆森 Sallie Harmsen
       伍德·哈里斯 Wood Harris
       托马斯·勒马尔奎斯 Tómas Lemarquis
       大卫·本森 David Benson

◎标  签 科幻 / 赛博朋克 / 反乌托邦 / 美国 / 人性 / 2017 / 剧情 / 动作

◎简  介
    故事发生在大断电30年后。复制人K(瑞恩·高斯林 Ryan Gosling 饰)是新一代的银翼杀手,在如今的世界里,人类和复制人之间的界限划分的更加明确,复制人从刚一制造出来就被灌输了服务于人类的思想,绝对不被允许产生人类的感情。                                    
                                  某日,一具女性复制人的遗骨被挖掘了出来 ,令陆军中尉乔什(罗宾·怀特 Robin Wright 饰)感到震惊的是,这名女性复制人生前不仅怀过孕,还将孩子生了下来,这个孩子的存在将会彻底破坏政府苦心经营的规则和秩序。乔什命令K找出这个孩子,并将他杀死。在一间废弃的农场里,K发现了一些线索,然而,这些线索竟然和他被植入的过去的记忆有着千丝万缕的关联。与此同时,复制人尼安德(杰瑞德·莱托 Jared Leto 饰)和他的手下拉芙(西尔维娅·侯克斯 Sylvia Hoeks 饰)也在寻找着这个孩子的下落。
  1. ##### MediaInfo ######
  2. General
  3. Unique ID                                : 314460566304170547560253249754533786892 (0xEC92E6EFDB37C47B38A4C1BA1F10F50C)
  4. Complete name                            : Blade.Runner.2049.2017.BluRay.1080p.x265.10bit-MiniHD.mkv
  5. Format                                   : Matroska
  6. Format version                           : Version 4
  7. File size                                : 4.97 GiB
  8. Duration                                 : 2 h 43 min
  9. Overall bit rate                         : 4 351 kb/s
  10. Encoded date                             : UTC 2018-01-06 17:15:51
  11. Writing application                      : mkvmerge v19.0.0 ('Brave Captain') 64-bit
  12. Writing library                          : libebml v1.3.5 + libmatroska v1.4.8
  13. Video
  14. ID                                       : 1
  15. Format                                   : HEVC
  16. Format/Info                              : High Efficiency Video Coding
  17. Format profile                           : Main 10@L4@Main
  18. Codec ID                                 : V_MPEGH/ISO/HEVC
  19. Duration                                 : 2 h 43 min
  20. Bit rate                                 : 3 675 kb/s
  21. Width                                    : 1 920 pixels
  22. Height                                   : 800 pixels
  23. Display aspect ratio                     : 2.40:1
  24. Frame rate mode                          : Constant
  25. Frame rate                               : 23.976 (24000/1001/53354) FPS
  26. Color space                              : YUV
  27. Chroma subsampling                       : 4:2:0
  28. Bit depth                                : 10 bits
  29. Bits/(Pixel*Frame)                       : 0.100
  30. Stream size                              : 4.20 GiB (84%)
  31. Writing library                          : x265 2.6+26-b4edf9b44d23:[Windows][MSVC 1900][64 bit] 10bit+8bit
  32. Encoding settings                        : cpuid=533541173503 / frame-threads=2 / numa-pools=4 / wpp / no-pmode / no-pme / no-psnr / no-ssim / log-level=2 / input-csp=1 / input-res=1920x800 / interlace=0 / total-frames=235152 / level-idc=0 / high-tier=1 / uhd-bd=0 / ref=5 / no-allow-non-conformance / no-repeat-headers / annexb / no-aud / no-hrd / info / hash=0 / no-temporal-layers / no-open-gop / min-keyint=1 / keyint=360 / gop-lookahead=0 / bframes=8 / b-adapt=2 / b-pyramid / bframe-bias=0 / rc-lookahead=60 / lookahead-slices=4 / NTMzNTQ=uuDQuD2mJt9fsCf / scenecut=40 / radl=0 / no-intra-refresh / ctu=32 / min-cu-size=8 / no-rect / no-amp / max-tu-size=16 / tu-inter-depth=2 / tu-intra-depth=2 / limit-tu=4 / rdoq-level=1 / dynamic-rd=0.00 / ssim-rd / signhide / no-tskip / nr-intra=0 / nr-inter=0 / no-constrained-intra / no-strong-intra-smoothing / max-merge=3 / limit-refs=2 / limit-modes / me=3 / subme=5 / merange=25 / temporal-mvp / weightp / weightb / no-analyze-src-pics / deblock=-1:-1 / no-sao / no-sao-non-deblock / rd=4 / no-early-skip / rskip / no-fast-intra / no-tskip-fast / no-cu-lossless / b-intra / no-splitrd-skip / rdpenalty=1 / psy-rd=0.00 / psy-rdoq=5.00 / no-rd-refine / no-lossless / cbqpoffs=-2 / crqpoffs=-2 / rc=crf / crf=15.0 / qcomp=0.70 / qpstep=4 / stats-write=0 / stats-read=0 / ipratio=1.40 / pbratio=1.30 / aq-mode=2 / aq-strength=0.90 / cutree / zone-count=0 / no-strict-cbr / qg-size=16 / no-rc-grain / qpmax=69 / qpmin=0 / no-const-vbv / sar=0 / overscan=0 / videoformat=5 / range=0 / colorprim=1 / transfer=2 / colormatrix=2 / chromaloc=0 / display-window=0 / max-cll=0,0 / min-luma=0 / max-luma=1023 / log2-max-poc-lsb=8 / vui-timing-info / vui-hrd-info / slices=1 / no-opt-qp-pps / no-opt-ref-list-length-pps / no-multi-pass-opt-rps / scenecut-bias=0.05 / no-opt-cu-delta-qp / no-aq-motion / no-hdr / no-hdr-opt / no-dhdr10-opt / analysis-save=(null) / analysis-load=(null) / analysis-reuse-level=5 / scale-factor=0 / refine-intra=0 / refine-inter=0 / refine-mv=0 / no-limit-sao / ctu-info=0 / no-lowpass-dct / refine-mv-type=0 / copy-pic=1
  33. Default                                  : Yes
  34. Forced                                   : No
  35. Color range                              : Limited
  36. Color primaries                          : BT.709
  37. Audio
  38. ID                                       : 2
  39. Format                                   : AC-3
  40. Format/Info                              : Audio Coding 3
  41. Commercial name                          : Dolby Digital
  42. Codec ID                                 : A_AC3
  43. Duration                                 : 2 h 43 min
  44. Bit rate mode                            : Constant
  45. Bit rate                                 : 640 kb/s
  46. Channel(s)                               : 6 channels
  47. Channel layout                           : L R C LFE Ls Rs
  48. Sampling rate                            : 48.0 kHz
  49. Frame rate                               : 31.250 FPS (1536 SPF)
  50. Compression mode                         : Lossy
  51. Stream size                              : 748 MiB (15%)
  52. Language                                 : English
  53. Service kind                             : Complete Main
  54. Default                                  : Yes
  55. Forced                                   : No
  56. Text #1
  57. ID                                       : 3
  58. Format                                   : PGS
  59. Muxing mode                              : zlib
  60. Codec ID                                 : S_HDMV/PGS
  61. Codec ID/Info                            : Picture based subtitle format used on BDs/HD-DVDs
  62. Duration                                 : 2 h 32 min
  63. Bit rate                                 : 14.9 kb/s
  64. Count of elements                        : 1950
  65. Stream size                              : 16.3 MiB (0%)
  66. Title                                    : 原盘英文
  67. Language                                 : English
  68. Default                                  : Yes
  69. Forced                                   : No
  70. Text #2
  71. ID                                       : 4
  72. Format                                   : PGS
  73. Muxing mode                              : zlib
  74. Codec ID                                 : S_HDMV/PGS
  75. Codec ID/Info                            : Picture based subtitle format used on BDs/HD-DVDs
  76. Duration                                 : 2 h 42 min
  77. Bit rate                                 : 13.3 kb/s
  78. Count of elements                        : 2092
  79. Stream size                              : 15.5 MiB (0%)
  80. Title                                    : 原盘粤语
  81. Language                                 : Chinese
  82. Default                                  : No
  83. Forced                                   : No
  84. Text #3
  85. ID                                       : 5
  86. Format                                   : PGS
  87. Muxing mode                              : zlib
  88. Codec ID                                 : S_HDMV/PGS
  89. Codec ID/Info                            : Picture based subtitle format used on BDs/HD-DVDs
  90. Duration                                 : 2 h 42 min
  91. Bit rate                                 : 12.4 kb/s
  92. Count of elements                        : 2090
  93. Stream size                              : 14.4 MiB (0%)
  94. Title                                    : 原盘简体
  95. Language                                 : Chinese
  96. Default                                  : No
  97. Forced                                   : No
  98. Text #4
  99. ID                                       : 6
  100. Format                                   : PGS
  101. Muxing mode                              : zlib
  102. Codec ID                                 : S_HDMV/PGS
  103. Codec ID/Info                            : Picture based subtitle format used on BDs/HD-DVDs
  104. Duration                                 : 2 h 42 min
  105. Bit rate                                 : 12.6 kb/s
  106. Count of elements                        : 2086
  107. Stream size                              : 14.7 MiB (0%)
  108. Title                                    : 原盘繁体
  109. Language                                 : Chinese
  110. Default                                  : No
  111. Forced                                   : No
  112. Text #5
  113. ID                                       : 7
  114. Format                                   : ASS
  115. Codec ID                                 : S_TEXT/ASS
  116. Codec ID/Info                            : Advanced Sub Station Alpha
  117. Duration                                 : 2 h 34 min
  118. Bit rate                                 : 120 b/s
  119. Count of elements                        : 1118
  120. Compression mode                         : Lossless
  121. Stream size                              : 136 KiB (0%)
  122. Title                                    : 简英字幕
  123. Language                                 : Chinese
  124. Default                                  : No
  125. Forced                                   : No
  126. Menu
  127. 00:00:00.000                             : en:00:00:00.000
  128. 00:12:36.172                             : en:00:12:36.172
  129. 00:23:29.283                             : en:00:23:29.283
  130. 00:37:00.885                             : en:00:37:00.885
  131. 00:42:50.318                             : en:00:42:50.318
  132. 00:49:24.503                             : en:00:49:24.503
  133. 00:58:35.554                             : en:00:58:35.554
  134. 01:04:10.680                             : en:01:04:10.680
  135. 01:15:47.293                             : en:01:15:47.293
  136. 01:25:12.482                             : en:01:25:12.482
  137. 01:36:15.061                             : en:01:36:15.061
  138. 01:50:55.107                             : en:01:50:55.107
  139. 02:01:36.873                             : en:02:01:36.873
  140. 02:08:40.379                             : en:02:08:40.379
  141. 02:16:42.486                             : en:02:16:42.486
  142. 02:27:46.733                             : en:02:27:46.733





此处一般会放置磁力链或种子下载链接,不过此链接需要注册会员才能看到,点击“立即注册”
磁力链下载【下载链接仅对注册会员开放,登陆后可见】
BT9527电影天堂 1、BT9527电影天堂提供的BT文件均来源于互联网抓取,只供网友学习交流、技术提升使用。
2、我们遵守BitTorrent点对点协议原则,任何版权问题请联系原资源发布商,我们不处理任何版权纠纷,谢谢!如有争议请联系邮箱:BT9527#hotmail.com(#换成@)
3、如果您发现某页面或地址有错误,请联系站长邮箱BT9527#hotmail.com(#换成@),我们会尽快处理。您的热心是对BT9527电影天堂最大的支持。
4、本站建议去正规影院观看电影以支持电影行业发展。
最新回复 (0)

你可以在 登录 or 注册 后,对此帖发表评论!

返回
发新帖