银翼杀手2049[简繁英字幕].Blade.Runner.2049.2017.BluRay.1080p.x265.10bit.HDR10-MiniHD 5.10GB

版主小s 1月前 77

✔资源类型:暂未分类   ✔电影年份:2017   ✔电影地区:欧美   ✔电影分类:剧情

◎标  题 银翼杀手2049
◎译  名 银翼杀手2 / Blade Runner 2
◎片  名 Blade Runner 2049
◎年  代 2017
◎产  地 美国 / 英国 / 加拿大 / 匈牙利 / 西班牙 / 墨西哥
◎类  别 剧情 / 动作 / 科幻
◎语  言 英语 / 芬兰语 / 日语 / 匈牙利语 / 俄语 / 西班牙语
◎上映日期 2017-10-27(中国大陆) / 2017-10-06(美国)
◎IMDb评分 8/10 (515103人评价)
◎IMDb链接 https://www.imdb.com/title/tt1856101/
◎豆瓣评分 8.3/10 (415605人评价)
◎豆瓣链接 https://movie.douban.com/subject/10512661/
◎片  长 163分钟 / 162分钟(中国大陆)
◎导  演 丹尼斯·维伦纽瓦 Denis Villeneuve
◎编  剧 汉普顿·范彻 Hampton Fancher
       迈克尔·格林 Michael Green
       菲利普·迪克 Philip K. Dick
◎演  员 瑞恩·高斯林 Ryan Gosling
       哈里森·福特 Harrison Ford
       安娜·德·阿玛斯 Ana de Armas
       西尔维娅·侯克斯 Sylvia Hoeks
       罗宾·怀特 Robin Wright
       杰瑞德·莱托 Jared Leto
       戴夫·巴蒂斯塔 Dave Bautista
       麦肯兹·戴维斯 Mackenzie Davis
       卡拉·朱里 Carla Juri
       爱德华·詹姆斯·奥莫斯 Edward James Olmos
       巴克德·阿巴蒂 Barkhad Abdi
       大卫·达斯马齐连 David Dastmalchian
       西娅姆·阿巴斯 Hiam Abbass
       连尼·詹姆斯 Lennie James
       马克·阿诺德 Mark Arnold
       肖恩·杨 Sean Young
       斯戴芬·莫昌特 Stephen Merchant
       克里斯塔·科索恩 Krista Kosonen
       萨莉·哈姆森 Sallie Harmsen
       伍德·哈里斯 Wood Harris
       托马斯·勒马尔奎斯 Tómas Lemarquis
       大卫·本森 David Benson

◎标  签 科幻 / 赛博朋克 / 反乌托邦 / 美国 / 人性 / 2017 / 剧情 / 动作

◎简  介
    故事发生在大断电30年后。复制人K(瑞恩·高斯林 Ryan Gosling 饰)是新一代的银翼杀手,在如今的世界里,人类和复制人之间的界限划分的更加明确,复制人从刚一制造出来就被灌输了服务于人类的思想,绝对不被允许产生人类的感情。                                    
                                  某日,一具女性复制人的遗骨被挖掘了出来 ,令陆军中尉乔什(罗宾·怀特 Robin Wright 饰)感到震惊的是,这名女性复制人生前不仅怀过孕,还将孩子生了下来,这个孩子的存在将会彻底破坏政府苦心经营的规则和秩序。乔什命令K找出这个孩子,并将他杀死。在一间废弃的农场里,K发现了一些线索,然而,这些线索竟然和他被植入的过去的记忆有着千丝万缕的关联。与此同时,复制人尼安德(杰瑞德·莱托 Jared Leto 饰)和他的手下拉芙(西尔维娅·侯克斯 Sylvia Hoeks 饰)也在寻找着这个孩子的下落。
  1. ##### MediaInfo ######
  2. General
  3. Unique ID                                : 9780022965941991103663885849931266011 (0x75B905C51E69320C348E323BC2BB7DB)
  4. Complete name                            : Blade.Runner.2049.2017.BluRay.1080p.x265.10bit.HDR10-MiniHD.mkv
  5. Format                                   : Matroska
  6. Format version                           : Version 4
  7. File size                                : 5.10 GiB
  8. Duration                                 : 2 h 43 min
  9. Overall bit rate                         : 4 466 kb/s
  10. Encoded date                             : UTC 2018-01-18 13:28:17
  11. Writing application                      : mkvmerge v20.0.0 ('I Am The Sun') 64-bit
  12. Writing library                          : libebml v1.3.5 + libmatroska v1.4.8
  13. Video
  14. ID                                       : 1
  15. Format                                   : HEVC
  16. Format/Info                              : High Efficiency Video Coding
  17. Format profile                           : Main 10@L4@High
  18. HDR format                               : SMPTE ST 2086, HDR10 compatible
  19. Codec ID                                 : V_MPEGH/ISO/HEVC
  20. Duration                                 : 2 h 43 min
  21. Bit rate                                 : 3 790 kb/s
  22. Width                                    : 1 920 pixels
  23. Height                                   : 800 pixels
  24. Display aspect ratio                     : 2.40:1
  25. Frame rate mode                          : Constant
  26. Frame rate                               : 23.976 (24000/1001/53354) FPS
  27. Color space                              : YUV
  28. Chroma subsampling                       : 4:2:0 (Type 2)
  29. Bit depth                                : 10 bits
  30. Bits/(Pixel*Frame)                       : 0.103
  31. Stream size                              : 4.33 GiB (85%)
  32. Writing library                          : x265 2.6+31-3712d13c09bf:[Windows][MSVC 1900][64 bit] 10bit
  33. Encoding settings                        : cpuid=533541173503 / frame-threads=2 / numa-pools=4 / wpp / no-pmode / no-pme / no-psnr / no-ssim / log-level=2 / input-csp=1 / input-res=1920x800 / interlace=0 / total-frames=235152 / level-idc=0 / high-tier=1 / uhd-bd=0 / ref=5 / no-allow-non-conformance / repeat-headers / annexb / aud / no-hrd / info / hash=0 / no-temporal-layers / no-open-gop / min-keyint=1 / keyint=360 / gop-lookahead=0 / bframes=8 / b-adapt=2 / b-pyramid / bframe-bias=0 / rc-lookahead=60 / lookahead-slices=4 / NTMzNTQ=uuDQuD2mJt9fsCf / scenecut=40 / radl=0 / no-intra-refresh / ctu=32 / min-cu-size=8 / no-rect / no-amp / max-tu-size=32 / tu-inter-depth=2 / tu-intra-depth=2 / limit-tu=4 / rdoq-level=2 / dynamic-rd=0.00 / ssim-rd / signhide / no-tskip / nr-intra=0 / nr-inter=0 / no-constrained-intra / no-strong-intra-smoothing / max-merge=3 / limit-refs=2 / limit-modes / me=3 / subme=5 / merange=25 / temporal-mvp / weightp / weightb / no-analyze-src-pics / deblock=-1:-1 / no-sao / no-sao-non-deblock / rd=4 / no-early-skip / no-rskip / no-fast-intra / no-tskip-fast / no-cu-lossless / b-intra / no-splitrd-skip / rdpenalty=1 / psy-rd=0.00 / psy-rdoq=5.00 / no-rd-refine / no-lossless / cbqpoffs=-3 / crqpoffs=-3 / rc=crf / crf=14.0 / qcomp=0.70 / qpstep=4 / stats-write=0 / stats-read=0 / vbv-maxrate=30000 / vbv-bufsize=30000 / vbv-init=0.9 / crf-max=0.0 / crf-min=0.0 / ipratio=1.30 / pbratio=1.20 / aq-mode=3 / aq-strength=1.00 / cutree / zone-count=0 / no-strict-cbr / qg-size=32 / no-rc-grain / qpmax=69 / qpmin=0 / no-const-vbv / sar=0 / overscan=0 / videoformat=5 / range=0 / colorprim=9 / transfer=16 / colormatrix=9 / chromaloc=1 / chromaloc-top=2 / chromaloc-bottom=2 / display-window=0 / master-display=G(13250,34500)B(7500,3000)R(34000,16000)WP(15635,16450)L(40000000,50) / max-cll=457,179 / min-luma=0 / max-luma=1023 / log2-max-poc-lsb=8 / vui-timing-info / vui-hrd-info / slices=1 / no-opt-qp-pps / no-opt-ref-list-length-pps / no-multi-pass-opt-rps / scenecut-bias=0.05 / no-opt-cu-delta-qp / no-aq-motion / hdr / hdr-opt / no-dhdr10-opt / analysis-reuse-level=5 / scale-factor=0 / refine-intra=0 / refine-inter=0 / refine-mv=0 / no-limit-sao / ctu-info=0 / no-lowpass-dct / refine-mv-type=0 / copy-pic=1
  34. Default                                  : Yes
  35. Forced                                   : No
  36. Color range                              : Limited
  37. Color primaries                          : BT.2020
  38. Transfer characteristics                 : PQ
  39. Matrix coefficients                      : BT.2020 non-constant
  40. Mastering display color primaries        : Display P3
  41. Mastering display luminance              : min: 0.0050 cd/m2, max: 4000 cd/m2
  42. Maximum Content Light Level              : 457 cd/m2
  43. Maximum Frame-Average Light Level        : 179 cd/m2
  44. Audio
  45. ID                                       : 2
  46. Format                                   : AC-3
  47. Format/Info                              : Audio Coding 3
  48. Commercial name                          : Dolby Digital
  49. Codec ID                                 : A_AC3
  50. Duration                                 : 2 h 43 min
  51. Bit rate mode                            : Constant
  52. Bit rate                                 : 640 kb/s
  53. Channel(s)                               : 6 channels
  54. Channel layout                           : L R C LFE Ls Rs
  55. Sampling rate                            : 48.0 kHz
  56. Frame rate                               : 31.250 FPS (1536 SPF)
  57. Compression mode                         : Lossy
  58. Stream size                              : 748 MiB (14%)
  59. Language                                 : English
  60. Service kind                             : Complete Main
  61. Default                                  : Yes
  62. Forced                                   : No
  63. Text #1
  64. ID                                       : 3
  65. Format                                   : PGS
  66. Muxing mode                              : zlib
  67. Codec ID                                 : S_HDMV/PGS
  68. Codec ID/Info                            : Picture based subtitle format used on BDs/HD-DVDs
  69. Duration                                 : 2 h 32 min
  70. Bit rate                                 : 14.9 kb/s
  71. Count of elements                        : 1950
  72. Stream size                              : 16.3 MiB (0%)
  73. Title                                    : 原盘英文
  74. Language                                 : English
  75. Default                                  : Yes
  76. Forced                                   : No
  77. Text #2
  78. ID                                       : 4
  79. Format                                   : PGS
  80. Muxing mode                              : zlib
  81. Codec ID                                 : S_HDMV/PGS
  82. Codec ID/Info                            : Picture based subtitle format used on BDs/HD-DVDs
  83. Duration                                 : 2 h 42 min
  84. Bit rate                                 : 13.3 kb/s
  85. Count of elements                        : 2092
  86. Stream size                              : 15.5 MiB (0%)
  87. Title                                    : 原盘粤语
  88. Language                                 : Chinese
  89. Default                                  : No
  90. Forced                                   : No
  91. Text #3
  92. ID                                       : 5
  93. Format                                   : PGS
  94. Muxing mode                              : zlib
  95. Codec ID                                 : S_HDMV/PGS
  96. Codec ID/Info                            : Picture based subtitle format used on BDs/HD-DVDs
  97. Duration                                 : 2 h 42 min
  98. Bit rate                                 : 12.4 kb/s
  99. Count of elements                        : 2090
  100. Stream size                              : 14.4 MiB (0%)
  101. Title                                    : 原盘简体
  102. Language                                 : Chinese
  103. Default                                  : No
  104. Forced                                   : No
  105. Text #4
  106. ID                                       : 6
  107. Format                                   : PGS
  108. Muxing mode                              : zlib
  109. Codec ID                                 : S_HDMV/PGS
  110. Codec ID/Info                            : Picture based subtitle format used on BDs/HD-DVDs
  111. Duration                                 : 2 h 42 min
  112. Bit rate                                 : 12.6 kb/s
  113. Count of elements                        : 2086
  114. Stream size                              : 14.7 MiB (0%)
  115. Title                                    : 原盘繁体
  116. Language                                 : Chinese
  117. Default                                  : No
  118. Forced                                   : No
  119. Text #5
  120. ID                                       : 7
  121. Format                                   : ASS
  122. Codec ID                                 : S_TEXT/ASS
  123. Codec ID/Info                            : Advanced Sub Station Alpha
  124. Duration                                 : 2 h 34 min
  125. Bit rate                                 : 120 b/s
  126. Count of elements                        : 1118
  127. Compression mode                         : Lossless
  128. Stream size                              : 136 KiB (0%)
  129. Title                                    : 简英双语
  130. Language                                 : Chinese
  131. Default                                  : No
  132. Forced                                   : No





此处一般会放置磁力链或种子下载链接,不过此链接需要注册会员才能看到,点击“立即注册”
磁力链下载【下载链接仅对注册会员开放,登陆后可见】
BT9527电影天堂 1、BT9527电影天堂提供的BT文件均来源于互联网抓取,只供网友学习交流、技术提升使用。
2、我们遵守BitTorrent点对点协议原则,任何版权问题请联系原资源发布商,我们不处理任何版权纠纷,谢谢!如有争议请联系邮箱:BT9527#hotmail.com(#换成@)
3、如果您发现某页面或地址有错误,请联系站长邮箱BT9527#hotmail.com(#换成@),我们会尽快处理。您的热心是对BT9527电影天堂最大的支持。
4、本站建议去正规影院观看电影以支持电影行业发展。
最新回复 (0)

你可以在 登录 or 注册 后,对此帖发表评论!

返回
发新帖