金钱本色[中英字幕].The.Color.of.Money.1986.BluRay.1080p.x265.10bit-MiniHD 6.39GB

版主小s 1月前 115

✔资源类型:暂未分类   ✔电影年份:更 早   ✔电影地区:欧美   ✔电影分类:剧情

◎标  题 金钱本色
◎片  名 The Color of Money
◎年  代 1986
◎产  地 美国
◎类  别 剧情 / 运动
◎语  言 英语
◎上映日期 1986-10-17
◎IMDb评分 7/10 (79562人评价)
◎IMDb链接 https://www.imdb.com/title/tt0090863/
◎豆瓣评分 7.3/10 (4319人评价)
◎豆瓣链接 https://movie.douban.com/subject/1297692/
◎片  长 119 分钟
◎导  演 马丁·斯科塞斯 Martin Scorsese
◎编  剧 理查德·普莱斯 Richard Price
◎演  员 保罗·纽曼 Paul Newman
       汤姆·克鲁斯 Tom Cruise
       玛丽·伊丽莎白·马斯特兰托尼奥 Mary Elizabeth Mastrantonio
       海伦·谢费 Helen Shaver
       约翰·特托罗 John Turturro
       罗恩·迪恩 Ron Dean
       马丁·斯科塞斯 Martin Scorsese
       福里斯特·惠特克 Forest Whitaker

◎标  签 美国 / 马丁·斯科塞斯 / 剧情 / TomCruise / MartinScorsese / PaulNewman / 1986 / 美国电影

◎简  介
    在经营了多年的桌球室里,艾迪(保罗·纽曼 Paul Newman饰)发现了一个优质的桌球苗子——文森(汤姆·克鲁斯 Tom Cruise饰)。文森暗藏着艾迪当年在桌球台上的风采,令艾迪决心收他为徒,助他在桌球事业上大显身手。于是,艾迪、文森和文森的女友,一同前往大西洋城参加大赛。                                    
                                  一路上,文森参加了不少小型比赛,虽然和艾迪之间不断有分歧,但也赢回不少金钱。同时,艾迪在培养文森的过程中,内心对桌球的热爱又重新被唤起,他重新拿起球杆,不料却败北而归。失落的艾迪决定离开文森,一个人苦练球技重振雄风。当踌躇满怀的艾迪重回大西洋赛场,却发现文森成为了自己的对手。                                    
                                  此时的文森对金钱的追求,已经远远超过了桌球本身。艾迪和文森的比赛成为一场尊严与金钱之战。
  1. ##### MediaInfo ######
  2. General
  3. Unique ID                                : 243155196613102072263539587858755337694 (0xB6EDFCC82685A701AC1A8DA0B8F5BDDE)
  4. Complete name                            : The.Color.of.Money.1986.BluRay.1080p.x265.10bit-MiniHD.mkv
  5. Format                                   : Matroska
  6. Format version                           : Version 4
  7. File size                                : 6.39 GiB
  8. Duration                                 : 1 h 59 min
  9. Overall bit rate                         : 7 647 kb/s
  10. Encoded date                             : UTC 2018-03-05 04:47:22
  11. Writing application                      : mkvmerge v18.0.0 ('Apricity') 64-bit
  12. Writing library                          : libebml v1.3.5 + libmatroska v1.4.8
  13. Video
  14. ID                                       : 1
  15. Format                                   : HEVC
  16. Format/Info                              : High Efficiency Video Coding
  17. Format profile                           : Main 10@L4@Main
  18. Codec ID                                 : V_MPEGH/ISO/HEVC
  19. Duration                                 : 1 h 59 min
  20. Bit rate                                 : 6 958 kb/s
  21. Width                                    : 1 920 pixels
  22. Height                                   : 1 038 pixels
  23. Display aspect ratio                     : 1.85:1
  24. Frame rate mode                          : Constant
  25. Frame rate                               : 23.976 (24000/1001/53354) FPS
  26. Color space                              : YUV
  27. Chroma subsampling                       : 4:2:0
  28. Bit depth                                : 10 bits
  29. Bits/(Pixel*Frame)                       : 0.146
  30. Stream size                              : 5.81 GiB (91%)
  31. Writing library                          : x265 2.6+14-f09f3b4a2115:[Windows][GCC 7.2.0][64 bit] 10bit
  32. Encoding settings                        : cpuid=533541173503 / frame-threads=3 / numa-pools=8 / wpp / no-pmode / no-pme / no-psnr / no-ssim / log-level=2 / input-csp=1 / input-res=1920x1038 / interlace=0 / total-frames=172124 / level-idc=0 / high-tier=1 / uhd-bd=0 / ref=5 / no-allow-non-conformance / no-repeat-headers / annexb / no-aud / no-hrd / info / hash=0 / no-temporal-layers / no-open-gop / min-keyint=1 / keyint=360 / gop-lookahead=0 / bframes=8 / b-adapt=2 / b-pyramid / bframe-bias=0 / rc-lookahead=40 / lookahead-slices=4 / NTMzNTQ=uuDQuD2mJt9fsCf / scenecut=40 / no-intra-refresh / ctu=32 / min-cu-size=8 / rect / no-amp / max-tu-size=16 / tu-inter-depth=2 / tu-intra-depth=2 / limit-tu=4 / rdoq-level=1 / dynamic-rd=0.00 / ssim-rd / signhide / no-tskip / nr-intra=0 / nr-inter=0 / no-constrained-intra / no-strong-intra-smoothing / max-merge=3 / limit-refs=2 / limit-modes / me=3 / subme=5 / merange=25 / temporal-mvp / weightp / weightb / no-analyze-src-pics / deblock=-1:-1 / no-sao / no-sao-non-deblock / rd=4 / no-early-skip / rskip / no-fast-intra / no-tskip-fast / no-cu-lossless / b-intra / no-splitrd-skip / rdpenalty=1 / psy-rd=0.00 / psy-rdoq=5.00 / no-rd-refine / analysis-reuse-mode=0 / no-lossless / cbqpoffs=-2 / crqpoffs=-2 / rc=crf / crf=18.0 / qcomp=0.65 / qpstep=4 / stats-write=0 / stats-read=0 / ipratio=1.40 / pbratio=1.30 / aq-mode=2 / aq-strength=0.80 / cutree / zone-count=0 / no-strict-cbr / qg-size=16 / no-rc-grain / qpmax=69 / qpmin=0 / no-const-vbv / sar=1 / overscan=0 / videoformat=5 / range=0 / colorprim=1 / transfer=2 / colormatrix=2 / chromaloc=0 / display-window=0 / max-cll=0,0 / min-luma=0 / max-luma=1023 / log2-max-poc-lsb=8 / vui-timing-info / vui-hrd-info / slices=1 / no-opt-qp-pps / no-opt-ref-list-length-pps / no-multi-pass-opt-rps / scenecut-bias=0.05 / no-opt-cu-delta-qp / no-aq-motion / no-hdr / no-hdr-opt / no-dhdr10-opt / analysis-reuse-level=5 / scale-factor=0 / refine-intra=0 / refine-inter=0 / refine-mv=0 / no-limit-sao / ctu-info=0 / no-lowpass-dct / refine-mv-type=0 / copy-pic=1
  33. Default                                  : Yes
  34. Forced                                   : No
  35. Color range                              : Limited
  36. Color primaries                          : BT.709
  37. Audio
  38. ID                                       : 2
  39. Format                                   : AC-3
  40. Format/Info                              : Audio Coding 3
  41. Commercial name                          : Dolby Digital
  42. Codec ID                                 : A_AC3
  43. Duration                                 : 1 h 59 min
  44. Bit rate mode                            : Constant
  45. Bit rate                                 : 640 kb/s
  46. Channel(s)                               : 6 channels
  47. Channel layout                           : L R C LFE Ls Rs
  48. Sampling rate                            : 48.0 kHz
  49. Frame rate                               : 31.250 FPS (1536 SPF)
  50. Compression mode                         : Lossy
  51. Stream size                              : 548 MiB (8%)
  52. Language                                 : English
  53. Service kind                             : Complete Main
  54. Default                                  : Yes
  55. Forced                                   : No
  56. Text #1
  57. ID                                       : 3
  58. Format                                   : PGS
  59. Muxing mode                              : zlib
  60. Codec ID                                 : S_HDMV/PGS
  61. Codec ID/Info                            : Picture based subtitle format used on BDs/HD-DVDs
  62. Duration                                 : 1 h 58 min
  63. Bit rate                                 : 41.1 kb/s
  64. Count of elements                        : 3266
  65. Stream size                              : 34.9 MiB (1%)
  66. Language                                 : English
  67. Default                                  : No
  68. Forced                                   : No
  69. Text #2
  70. ID                                       : 4
  71. Format                                   : PGS
  72. Muxing mode                              : zlib
  73. Codec ID                                 : S_HDMV/PGS
  74. Codec ID/Info                            : Picture based subtitle format used on BDs/HD-DVDs
  75. Duration                                 : 1 h 58 min
  76. Bit rate                                 : 30.5 kb/s
  77. Count of elements                        : 2658
  78. Stream size                              : 25.9 MiB (0%)
  79. Language                                 : Chinese
  80. Default                                  : Yes
  81. Forced                                   : No
  82. Text #3
  83. ID                                       : 5
  84. Format                                   : PGS
  85. Muxing mode                              : zlib
  86. Codec ID                                 : S_HDMV/PGS
  87. Codec ID/Info                            : Picture based subtitle format used on BDs/HD-DVDs
  88. Duration                                 : 1 h 58 min
  89. Bit rate                                 : 31.4 kb/s
  90. Count of elements                        : 2658
  91. Stream size                              : 26.6 MiB (0%)
  92. Language                                 : Chinese
  93. Default                                  : No
  94. Forced                                   : No
  95. Menu
  96. 00:00:00.000                             : en:Chapter 01
  97. 00:04:50.081                             : en:Chapter 02
  98. 00:06:09.702                             : en:Chapter 03
  99. 00:09:37.785                             : en:Chapter 04
  100. 00:14:19.441                             : en:Chapter 05
  101. 00:18:26.188                             : en:Chapter 06
  102. 00:21:46.972                             : en:Chapter 07
  103. 00:26:19.494                             : en:Chapter 08
  104. 00:32:21.856                             : en:Chapter 09
  105. 00:37:23.908                             : en:Chapter 10
  106. 00:39:11.557                             : en:Chapter 11
  107. 00:46:40.005                             : en:Chapter 12
  108. 00:53:57.943                             : en:Chapter 13
  109. 01:03:40.274                             : en:Chapter 14
  110. 01:07:08.315                             : en:Chapter 15
  111. 01:10:18.714                             : en:Chapter 16
  112. 01:19:59.085                             : en:Chapter 17
  113. 01:22:10.175                             : en:Chapter 18
  114. 01:28:33.016                             : en:Chapter 19
  115. 01:35:57.334                             : en:Chapter 20
  116. 01:39:00.684                             : en:Chapter 21
  117. 01:53:19.793                             : en:Chapter 22
  118. 01:54:59.100                             : en:Chapter 23
  119. 01:56:08.378                             : en:Chapter 24





此处一般会放置磁力链或种子下载链接,不过此链接需要注册会员才能看到,点击“立即注册”
磁力链下载【下载链接仅对注册会员开放,登陆后可见】
BT9527电影天堂 1、BT9527电影天堂提供的BT文件均来源于互联网抓取,只供网友学习交流、技术提升使用。
2、我们遵守BitTorrent点对点协议原则,任何版权问题请联系原资源发布商,我们不处理任何版权纠纷,谢谢!如有争议请联系邮箱:BT9527#hotmail.com(#换成@)
3、如果您发现某页面或地址有错误,请联系站长邮箱BT9527#hotmail.com(#换成@),我们会尽快处理。您的热心是对BT9527电影天堂最大的支持。
4、本站建议去正规影院观看电影以支持电影行业发展。
最新回复 (0)

你可以在 登录 or 注册 后,对此帖发表评论!

返回
发新帖