醉乡民谣[简繁英字幕].Inside.Llewyn.Davis.2013.BluRay.1080p.x265.10bit-MiniHD 5.07GB

版主小s 1月前 83

✔资源类型:暂未分类   ✔电影年份:2013   ✔电影地区:欧美   ✔电影分类:剧情

◎标  题 醉乡民谣
◎译  名 知音梦里行(港) / 关于勒维恩·戴维斯 / 醉乡蓝调
◎片  名 Inside Llewyn Davis
◎年  代 2013
◎产  地 美国 / 英国 / 法国
◎类  别 剧情 / 音乐
◎语  言 英语
◎上映日期 2013-11-06(法国) / 2013-12-06(美国)
◎IMDb评分 7.5/10 (147633人评价)
◎IMDb链接 https://www.imdb.com/title/tt2042568/
◎豆瓣评分 8.1/10 (113723人评价)
◎豆瓣链接 https://movie.douban.com/subject/6887029/
◎片  长 105分钟
◎导  演 伊桑·科恩 Ethan Coen
       乔尔·科恩 Joel Coen
◎编  剧 乔尔·科恩 Joel Coen
       伊桑·科恩 Ethan Coen
◎演  员 奥斯卡·伊萨克 Oscar Isaac
       凯瑞·穆里根 Carey Mulligan
       约翰·古德曼 John Goodman
       加内特·赫德兰 Garrett Hedlund
       F·默里·亚伯拉罕 F. Murray Abraham
       贾斯汀·汀布莱克 Justin Timberlake
       斯塔克·桑德斯 Stark Sands
       亚当·德赖弗 Adam Driver
       伊桑·菲利普斯 Ethan Phillips
       罗宾·巴特利特 Robin Bartlett
       马克斯·凯塞拉 Max Casella
       亚历克斯·卡普夫斯基 Alex Karpovsky
       海伦·洪 Helen Hong
       杰克·奥康耐 Jack O'Connell
       里卡多·科德罗 Ricardo Cordero
       伊恩·布莱克曼 Ian Blackman
       苏珊·布洛马特 Susan Blommaert
       詹姆斯·科尔比 James Colby
       麦克·休斯顿 Mike Houston
       杰克·莱恩 Jake Ryan
       丹尼尔·埃维里奇 Daniel Everidge
       吉纳维芙亚当斯 Genevieve Adams
       斯坦·卡普 Stan Carp
       罗丝玛丽·霍华德 Rosemary Howard
       乔治·凯特 George Katt
       比尔·韦登 Bill Weeden
       马库斯·蒙福 Marcus Mumford
       德克兰·本尼特 Declan Bennett
       杰瑞·格雷森 Jerry Grayson
       珍妮·塞拉尔斯 Jeanine Serralles
       史蒂文·韦斯 Steven Weisz

◎标  签 音乐 / 科恩兄弟 / 美国 / 民谣 / 传记 / 文艺 / 2013 / 剧情

◎简  介
    故事发生在六十年代的美国,勒维恩(奥斯卡·伊萨克 Oscar Isaac 饰)是一位名不见经传的民谣歌手,生活困顿的他无家可归亦没有固定的工作,每晚得靠朋友们的救济才得以寻得安身之处。可是,尽管陷入了窘境,但固执的勒维恩却不愿意了顺应大众的喜好而做出无奈的改变,也正因为此,他和交往多年的好友简(凯瑞·穆丽根 Carey Mulligan 饰)和吉姆(贾斯汀·丁伯莱克 Justin Timberlake 饰)之间的关系也跌落到了冰点,更让勒维恩感到烦心的是,简的腹中竟然怀上了自己的孩子。                                    
                                  之后,勒维恩前往芝加哥企图找到一份工作,却在面试之后惨遭拒绝,之后,一无所获的他回到了格林尼治村,继续回到曾经兼职的小酒馆打工。熟悉的场景,熟悉的音乐,熟悉的氛围,勒维恩经历了许多,却又好像什么都没有发生过。
  1. ##### MediaInfo ######
  2. General
  3. Unique ID                                : 23626565245298203620393503292360699761 (0x11C64F9A58C1D7B6FE8F8DF4782B2F71)
  4. Complete name                            : Inside.Llewyn.Davis.2013.BluRay.1080p.x265.10bit-MiniHD.mkv
  5. Format                                   : Matroska
  6. Format version                           : Version 4
  7. File size                                : 5.07 GiB
  8. Duration                                 : 1 h 45 min
  9. Overall bit rate                         : 6 864 kb/s
  10. Encoded date                             : UTC 2018-02-06 23:46:41
  11. Writing application                      : mkvmerge v20.0.0 ('I Am The Sun') 64-bit
  12. Writing library                          : libebml v1.3.5 + libmatroska v1.4.8
  13. Video
  14. ID                                       : 1
  15. Format                                   : HEVC
  16. Format/Info                              : High Efficiency Video Coding
  17. Format profile                           : Main 10@L4@High
  18. Codec ID                                 : V_MPEGH/ISO/HEVC
  19. Duration                                 : 1 h 44 min
  20. Bit rate                                 : 5 342 kb/s
  21. Width                                    : 1 920 pixels
  22. Height                                   : 1 040 pixels
  23. Display aspect ratio                     : 1.85:1
  24. Frame rate mode                          : Constant
  25. Frame rate                               : 23.976 (24000/1001/53354) FPS
  26. Color space                              : YUV
  27. Chroma subsampling                       : 4:2:0
  28. Bit depth                                : 10 bits
  29. Bits/(Pixel*Frame)                       : 0.112
  30. Stream size                              : 3.91 GiB (77%)
  31. Title                                    : 视频
  32. Default                                  : Yes
  33. Forced                                   : No
  34. Color range                              : Limited
  35. Color primaries                          : BT.709
  36. Audio
  37. ID                                       : 2
  38. Format                                   : DTS
  39. Format/Info                              : Digital Theater Systems
  40. Codec ID                                 : A_DTS
  41. Duration                                 : 1 h 44 min
  42. Bit rate mode                            : Constant
  43. Bit rate                                 : 1 509 kb/s
  44. Channel(s)                               : 6 channels
  45. Channel layout                           : C L R Ls Rs LFE
  46. Sampling rate                            : 48.0 kHz
  47. Frame rate                               : 93.750 FPS (512 SPF)
  48. Bit depth                                : 24 bits
  49. Compression mode                         : Lossy
  50. Stream size                              : 1.11 GiB (22%)
  51. Title                                    : 英语dts-5.1@1509kbps
  52. Language                                 : English
  53. Default                                  : Yes
  54. Forced                                   : No
  55. Text #1
  56. ID                                       : 3
  57. Format                                   : PGS
  58. Muxing mode                              : zlib
  59. Codec ID                                 : S_HDMV/PGS
  60. Codec ID/Info                            : Picture based subtitle format used on BDs/HD-DVDs
  61. Duration                                 : 1 h 45 min
  62. Bit rate                                 : 46.5 kb/s
  63. Count of elements                        : 3195
  64. Stream size                              : 35.2 MiB (1%)
  65. Title                                    : 简英
  66. Default                                  : No
  67. Forced                                   : No
  68. Text #2
  69. ID                                       : 4
  70. Format                                   : PGS
  71. Muxing mode                              : zlib
  72. Codec ID                                 : S_HDMV/PGS
  73. Codec ID/Info                            : Picture based subtitle format used on BDs/HD-DVDs
  74. Duration                                 : 1 h 40 min
  75. Bit rate                                 : 26.9 kb/s
  76. Count of elements                        : 2663
  77. Stream size                              : 19.3 MiB (0%)
  78. Title                                    : 简中
  79. Language                                 : Chinese
  80. Default                                  : Yes
  81. Forced                                   : No
  82. Text #3
  83. ID                                       : 5
  84. Format                                   : PGS
  85. Muxing mode                              : zlib
  86. Codec ID                                 : S_HDMV/PGS
  87. Codec ID/Info                            : Picture based subtitle format used on BDs/HD-DVDs
  88. Duration                                 : 1 h 40 min
  89. Bit rate                                 : 28.0 kb/s
  90. Count of elements                        : 2663
  91. Stream size                              : 20.1 MiB (0%)
  92. Title                                    : 繁中
  93. Language                                 : Chinese
  94. Default                                  : No
  95. Forced                                   : No
  96. Text #4
  97. ID                                       : 6
  98. Format                                   : PGS
  99. Muxing mode                              : zlib
  100. Codec ID                                 : S_HDMV/PGS
  101. Codec ID/Info                            : Picture based subtitle format used on BDs/HD-DVDs
  102. Duration                                 : 1 h 44 min
  103. Bit rate                                 : 53.1 kb/s
  104. Count of elements                        : 3143
  105. Stream size                              : 39.7 MiB (1%)
  106. Title                                    : 英语
  107. Language                                 : English
  108. Default                                  : No
  109. Forced                                   : No
  110. Menu
  111. 00:00:00.000                             : en:Chapter 01
  112. 00:05:34.751                             : en:Chapter 02
  113. 00:10:54.904                             : en:Chapter 03
  114. 00:14:39.629                             : en:Chapter 04
  115. 00:19:30.169                             : en:Chapter 05
  116. 00:25:28.152                             : en:Chapter 06
  117. 00:29:01.490                             : en:Chapter 07
  118. 00:35:09.649                             : en:Chapter 08
  119. 00:42:11.237                             : en:Chapter 09
  120. 00:47:38.731                             : en:Chapter 10
  121. 00:57:56.014                             : en:Chapter 11
  122. 01:03:47.449                             : en:Chapter 12
  123. 01:13:27.945                             : en:Chapter 13
  124. 01:17:04.829                             : en:Chapter 14
  125. 01:24:18.470                             : en:Chapter 15
  126. 01:31:36.574                             : en:Chapter 16
  127. 01:44:50.075                             : en:Chapter 17





此处一般会放置磁力链或种子下载链接,不过此链接需要注册会员才能看到,点击“立即注册”
磁力链下载【下载链接仅对注册会员开放,登陆后可见】
BT9527电影天堂 1、BT9527电影天堂提供的BT文件均来源于互联网抓取,只供网友学习交流、技术提升使用。
2、我们遵守BitTorrent点对点协议原则,任何版权问题请联系原资源发布商,我们不处理任何版权纠纷,谢谢!如有争议请联系邮箱:BT9527#hotmail.com(#换成@)
3、如果您发现某页面或地址有错误,请联系站长邮箱BT9527#hotmail.com(#换成@),我们会尽快处理。您的热心是对BT9527电影天堂最大的支持。
4、本站建议去正规影院观看电影以支持电影行业发展。
最新回复 (0)

你可以在 登录 or 注册 后,对此帖发表评论!

返回
发新帖