迷失东京[国英多音轨/简繁英字幕].Lost.in.Translation.2003.BluRay.1080p.x265.10bit.2Audios-MiniHD 4.70GB

版主小s 1月前 102

✔资源类型:暂未分类   ✔电影年份:更 早   ✔电影地区:欧美   ✔电影分类:剧情

◎标  题 迷失东京
◎译  名 爱情,不用翻译(台) / 迷语东京
◎片  名 Lost in Translation
◎年  代 2003
◎产  地 美国 / 日本
◎类  别 剧情 / 爱情
◎语  言 英语 / 日语 / 德语 / 法语
◎上映日期 2003-08-29(特柳赖德电影节) / 2003-10-03(美国)
◎IMDb评分 7.7/10 (436927人评价)
◎IMDb链接 https://www.imdb.com/title/tt0335266/
◎豆瓣评分 7.7/10 (199259人评价)
◎豆瓣链接 https://movie.douban.com/subject/1291835/
◎片  长 102 分钟
◎导  演 索菲亚·科波拉 Sofia Coppola
◎编  剧 索菲亚·科波拉 Sofia Coppola
◎演  员 斯嘉丽·约翰逊 Scarlett Johansson
       比尔·默瑞 Bill Murray
       吉奥瓦尼·瑞比西 Giovanni Ribisi
       竹下明子 Akiko Takeshita
       安娜·法瑞丝 Anna Faris
       凯瑟琳·兰伯特 Catherine Lambert
       野村训市 Kunichi Nomura
       桃生亚希子 Akiko Monou
       利川裕美 Hiromi Toshikawa
       藤原浩 Hiroshi Fujiwara
       南西·斯坦纳 Nancy Steiner
       史蒂芬·野村·斯奇博 Stephen Nomura Schible
       索菲亚·科波拉 Sofia Coppola
       弗朗西斯·福特·科波拉 Francis Ford Coppola
       细野晴臣 Haruomi Hosono
       莎拉·弗拉克 Sarah Flack
       桑岛十和子 Towako Kuwashima
       K.K. 巴雷特 K.K. Barrett
       安妮·罗斯 Anne Ross
       富田真由美 Mayumi Tomita
       中西梨花 Rika Nakanishi
       南西·斯坦纳 Nancy Steiner
       莫拉格·罗斯 Morag Ross

◎标  签 文艺 / 美国 / 迷失东京 / 爱情 / ScarlettJohansson / 日本 / 美国电影 / 剧情

◎简  介
  一切源自于无处不在的寂寞。当寂寞蔓延到头顶无法呼吸,过气电视明星鲍勃·哈里斯(比尔·默瑞 Bill Murray 饰),已为人妻的夏洛特(斯嘉丽·约翰逊 Scarlett Johansson 饰),年轻貌美的电影女演员凯莉(安娜·法瑞丝 Anna Faris 饰)在机缘巧合下在东京相遇。在这个不是故乡的陌生城市里,他们在豪华旅馆邂逅,不约而同的失眠,互相 陪伴,生活一方面仿佛变的缤纷起来,另一面却逐渐走向迷失,过气明星和为人妻的夏洛特能迎接他们二人思想和关系变化的挑战吗?冲破迷失或者身陷其中,让我们一起找寻答案。
  1. ##### MediaInfo ######
  2. General
  3. Unique ID                                : 109314357423701662139272564596824314912 (0x523D2DEF36F2262C108A205C8E1B9420)
  4. Complete name                            : Lost.in.Translation.2003.BluRay.1080p.x265.10bit.2Audios-MiniHD.mkv
  5. Format                                   : Matroska
  6. Format version                           : Version 4
  7. File size                                : 4.70 GiB
  8. Duration                                 : 1 h 41 min
  9. Overall bit rate                         : 6 613 kb/s
  10. Encoded date                             : UTC 2018-01-22 10:09:45
  11. Writing application                      : mkvmerge v20.0.0 ('I Am The Sun') 64-bit
  12. Writing library                          : libebml v1.3.5 + libmatroska v1.4.8
  13. Video
  14. ID                                       : 1
  15. Format                                   : HEVC
  16. Format/Info                              : High Efficiency Video Coding
  17. Format profile                           : Main 10@L4@High
  18. Codec ID                                 : V_MPEGH/ISO/HEVC
  19. Duration                                 : 1 h 41 min
  20. Bit rate                                 : 5 270 kb/s
  21. Width                                    : 1 920 pixels
  22. Height                                   : 1 044 pixels
  23. Display aspect ratio                     : 1.85:1
  24. Frame rate mode                          : Constant
  25. Frame rate                               : 23.976 (24000/1001/53354) FPS
  26. Color space                              : YUV
  27. Chroma subsampling                       : 4:2:0
  28. Bit depth                                : 10 bits
  29. Bits/(Pixel*Frame)                       : 0.110
  30. Stream size                              : 3.75 GiB (80%)
  31. Title                                    : video.hevc
  32. Default                                  : Yes
  33. Forced                                   : No
  34. Color range                              : Limited
  35. Color primaries                          : BT.709
  36. Audio #1
  37. ID                                       : 2
  38. Format                                   : AC-3
  39. Format/Info                              : Audio Coding 3
  40. Commercial name                          : Dolby Digital
  41. Codec ID                                 : A_AC3
  42. Duration                                 : 1 h 41 min
  43. Bit rate mode                            : Constant
  44. Bit rate                                 : 640 kb/s
  45. Channel(s)                               : 6 channels
  46. Channel layout                           : L R C LFE Ls Rs
  47. Sampling rate                            : 48.0 kHz
  48. Frame rate                               : 31.250 FPS (1536 SPF)
  49. Compression mode                         : Lossy
  50. Stream size                              : 466 MiB (10%)
  51. Title                                    : 英语English.ac3-5.1@640kbps
  52. Language                                 : English
  53. Service kind                             : Complete Main
  54. Default                                  : Yes
  55. Forced                                   : No
  56. Audio #2
  57. ID                                       : 3
  58. Format                                   : AC-3
  59. Format/Info                              : Audio Coding 3
  60. Commercial name                          : Dolby Digital
  61. Codec ID                                 : A_AC3
  62. Duration                                 : 1 h 41 min
  63. Bit rate mode                            : Constant
  64. Bit rate                                 : 640 kb/s
  65. Channel(s)                               : 6 channels
  66. Channel layout                           : L R C LFE Ls Rs
  67. Sampling rate                            : 48.0 kHz
  68. Frame rate                               : 31.250 FPS (1536 SPF)
  69. Compression mode                         : Lossy
  70. Stream size                              : 466 MiB (10%)
  71. Title                                    : 国语.ac3-5.1@640kbps
  72. Language                                 : Chinese
  73. Service kind                             : Complete Main
  74. Default                                  : No
  75. Forced                                   : No
  76. Text #1
  77. ID                                       : 4
  78. Format                                   : PGS
  79. Muxing mode                              : zlib
  80. Codec ID                                 : S_HDMV/PGS
  81. Codec ID/Info                            : Picture based subtitle format used on BDs/HD-DVDs
  82. Duration                                 : 1 h 40 min
  83. Bit rate                                 : 23.8 kb/s
  84. Count of elements                        : 2206
  85. Stream size                              : 17.1 MiB (0%)
  86. Title                                    : 简中
  87. Language                                 : Chinese
  88. Default                                  : No
  89. Forced                                   : No
  90. Text #2
  91. ID                                       : 5
  92. Format                                   : PGS
  93. Muxing mode                              : zlib
  94. Codec ID                                 : S_HDMV/PGS
  95. Codec ID/Info                            : Picture based subtitle format used on BDs/HD-DVDs
  96. Duration                                 : 1 h 40 min
  97. Bit rate                                 : 24.3 kb/s
  98. Count of elements                        : 2206
  99. Stream size                              : 17.5 MiB (0%)
  100. Title                                    : 繁中
  101. Language                                 : Chinese
  102. Default                                  : No
  103. Forced                                   : No
  104. Text #3
  105. ID                                       : 6
  106. Format                                   : PGS
  107. Muxing mode                              : zlib
  108. Codec ID                                 : S_HDMV/PGS
  109. Codec ID/Info                            : Picture based subtitle format used on BDs/HD-DVDs
  110. Duration                                 : 1 h 40 min
  111. Bit rate                                 : 40.5 kb/s
  112. Count of elements                        : 2796
  113. Stream size                              : 29.2 MiB (1%)
  114. Title                                    : 简英双语
  115. Default                                  : Yes
  116. Forced                                   : No
  117. Text #4
  118. ID                                       : 7
  119. Format                                   : PGS
  120. Muxing mode                              : zlib
  121. Codec ID                                 : S_HDMV/PGS
  122. Codec ID/Info                            : Picture based subtitle format used on BDs/HD-DVDs
  123. Duration                                 : 1 h 39 min
  124. Bit rate                                 : 33.0 kb/s
  125. Count of elements                        : 2760
  126. Stream size                              : 23.5 MiB (0%)
  127. Title                                    : 英语
  128. Language                                 : English
  129. Default                                  : No
  130. Forced                                   : No
  131. Menu
  132. 00:00:00.000                             : en:Chapter 01
  133. 00:01:09.569                             : en:Chapter 02
  134. 00:06:07.158                             : en:Chapter 03
  135. 00:08:30.425                             : en:Chapter 04
  136. 00:11:59.301                             : en:Chapter 05
  137. 00:16:05.214                             : en:Chapter 06
  138. 00:20:01.782                             : en:Chapter 07
  139. 00:26:15.740                             : en:Chapter 08
  140. 00:30:44.843                             : en:Chapter 09
  141. 00:36:39.655                             : en:Chapter 10
  142. 00:41:28.068                             : en:Chapter 11
  143. 00:48:24.025                             : en:Chapter 12
  144. 00:55:20.400                             : en:Chapter 13
  145. 00:58:35.637                             : en:Chapter 14
  146. 00:59:52.255                             : en:Chapter 15
  147. 01:05:54.574                             : en:Chapter 16
  148. 01:13:24.399                             : en:Chapter 17
  149. 01:17:34.106                             : en:Chapter 18
  150. 01:22:09.131                             : en:Chapter 19
  151. 01:24:21.847                             : en:Chapter 20
  152. 01:25:54.899                             : en:Chapter 21
  153. 01:29:08.384                             : en:Chapter 22
  154. 01:32:01.265                             : en:Chapter 23
  155. 01:35:57.417                             : en:Chapter 24
  156. 01:41:46.475                             : en:Chapter 25





此处一般会放置磁力链或种子下载链接,不过此链接需要注册会员才能看到,点击“立即注册”
磁力链下载【下载链接仅对注册会员开放,登陆后可见】
BT9527电影天堂 1、BT9527电影天堂提供的BT文件均来源于互联网抓取,只供网友学习交流、技术提升使用。
2、我们遵守BitTorrent点对点协议原则,任何版权问题请联系原资源发布商,我们不处理任何版权纠纷,谢谢!如有争议请联系邮箱:BT9527#hotmail.com(#换成@)
3、如果您发现某页面或地址有错误,请联系站长邮箱BT9527#hotmail.com(#换成@),我们会尽快处理。您的热心是对BT9527电影天堂最大的支持。
4、本站建议去正规影院观看电影以支持电影行业发展。
最新回复 (0)

你可以在 登录 or 注册 后,对此帖发表评论!

返回
发新帖