致命武器4[国英多音轨/简繁英字幕].Lethal.Weapon.4.1998.BluRay.1080p.x265.10bit.2Audio-MiniHD 4.33GB

版主小s 1月前 103

✔资源类型:暂未分类   ✔电影年份:更 早   ✔电影地区:欧美   ✔电影分类:动作

◎标  题 致命武器4
◎译  名 轰天炮4 / 英雄无敌4
◎片  名 Lethal Weapon 4
◎年  代 1998
◎产  地 美国
◎类  别 动作 / 惊悚 / 犯罪
◎语  言 英语 / 粤语 / 汉语普通话
◎上映日期 1998-07-10
◎IMDb评分 6.6/10 (158823人评价)
◎IMDb链接 https://www.imdb.com/title/tt0122151/
◎豆瓣评分 6.4/10 (5412人评价)
◎豆瓣链接 https://movie.douban.com/subject/1294616/
◎片  长 127 分钟
◎导  演 理查德·唐纳 Richard Donner
◎编  剧 沙恩·布莱克 Shane Black
       乔纳森·勒姆金 Jonathan Lemkin
       艾尔弗雷德·高福 Alfred Gough
       迈尔斯·米勒 Miles Millar
       钱宁·吉布森 Channing Gibson
◎演  员 梅尔·吉布森 Mel Gibson
       丹尼·格洛弗 Danny Glover
       乔·佩西 Joe Pesci
       蕾妮·罗素 Rene Russo
       克里斯·洛克 Chris Rock
       李连杰 Jet Li
       Kim Chan Kim Chan
       达琳·洛夫 Darlene Love
       特蕾西·沃尔夫 Traci Wolfe
       高雄 Eddy Ko
       杰克·科勒尔 Jack Kehler
       卡尔文·阮 Calvin Jung
       Damon Hines Damon Hines
       Ebonie Smith Ebonie Smith
       李元霸 Conan Lee
       阿尔·萨皮恩扎 Al Sapienza
       弗朗克西斯·周 François Chau
       菲利普·丹 Philip Tan
       迈克尔·李 Michael Li
       孙芳 Elizabeth Sung
       Steve Perry Steve Perry
       安德泽·巴特科维卡 Andrzej Bartkowiak
       弗兰克·J·乌里奥斯特 Frank J. Urioste
       戴维·F·克拉森 David F. Klassen
       Richard F. Mays Richard F. Mays
       劳里·加芬 Lauri Gaffin
       Ha Nguyen Ha Nguyen
       Robin L. Neal Robin L. Neal
       Gary Liddiard Gary Liddiard
       Virginia Grobeson Virginia Grobeson
       Christine Lee Christine Lee
       Julie Hewett Julie Hewett
       James R. Scribner James R. Scribner
       米克·罗杰斯 Mic Rodgers
       Steve Perry Steve Perry
       David Taritero David Taritero
       迈克尔·L·芬克 Michael L. Fink
       Bill Mather Bill Mather

◎标  签 动作 / 李连杰 / 美国 / 梅尔·吉布森 / 犯罪 / 美国电影 / 警匪 / 1998

◎简  介
  马丁(梅尔·吉布森 Mel Gibson 饰)和罗杰(丹尼·格洛弗 Danny Glover 饰)是相识多年的老友兼同事,两人都是警察。一次在与共同的好友盖茨(乔·佩西 Joe Pesci 饰)相约出海的途中,三人偶遇了一艘非法偷渡的船只。身为警察的马丁自知绝不能对此坐视不管,于是展开了与黑道分子的激烈斗争。                                    
                                在这批偷渡客中,有一位名为阿洪(高雄 饰)的男子,善良的罗杰收留了他和他无处可去的家人,没想到正是这一举动激怒了危险的黑帮教头王(李连杰 饰),为了从罗杰的手里将洪抢走,王不惜干下了许多伤天害理的勾当。在阿洪的身上究竟隐藏了怎样的秘密?王千方百计的想要得到阿洪又究竟是为了什么?
  1. ##### MediaInfo ######
  2. General
  3. Unique ID                                : 83143607979102218376968052748803901000 (0x3E8CE05DA8E6928960C02403256C0648)
  4. Complete name                            : Lethal.Weapon.4.1998.BluRay.1080p.x265.10bit.2Audio-MiniHD.mkv
  5. Format                                   : Matroska
  6. Format version                           : Version 4
  7. File size                                : 4.33 GiB
  8. Duration                                 : 2 h 7 min
  9. Overall bit rate                         : 4 866 kb/s
  10. Encoded date                             : UTC 2018-04-08 19:17:59
  11. Writing application                      : mkvmerge v20.0.0 ('I Am The Sun') 64-bit
  12. Writing library                          : libebml v1.3.5 + libmatroska v1.4.8
  13. Video
  14. ID                                       : 1
  15. Format                                   : HEVC
  16. Format/Info                              : High Efficiency Video Coding
  17. Format profile                           : Main 10@L4@Main
  18. Codec ID                                 : V_MPEGH/ISO/HEVC
  19. Duration                                 : 2 h 7 min
  20. Bit rate                                 : 3 745 kb/s
  21. Width                                    : 1 920 pixels
  22. Height                                   : 800 pixels
  23. Display aspect ratio                     : 2.40:1
  24. Frame rate mode                          : Constant
  25. Frame rate                               : 23.976 (24000/1001/53354) FPS
  26. Color space                              : YUV
  27. Chroma subsampling                       : 4:2:0
  28. Bit depth                                : 10 bits
  29. Bits/(Pixel*Frame)                       : 0.102
  30. Stream size                              : 3.33 GiB (77%)
  31. Writing library                          : x265 2.7+1-2aa737a99f51:[Windows][GCC 7.3.0][64 bit] 10bit
  32. Encoding settings                        : cpuid=533541173503 / frame-threads=3 / numa-pools=8 / wpp / no-pmode / no-pme / no-psnr / no-ssim / log-level=2 / csv / csv-log-level=0 / input-csp=1 / input-res=1920x800 / interlace=0 / total-frames=183265 / level-idc=0 / high-tier=1 / uhd-bd=0 / ref=5 / no-allow-non-conformance / no-repeat-headers / annexb / no-aud / no-hrd / info / hash=0 / no-temporal-layers / no-open-gop / min-keyint=1 / keyint=360 / gop-lookahead=0 / bframes=9 / b-adapt=2 / b-pyramid / bframe-bias=0 / rc-lookahead=60 / lookahead-slices=4 / NTMzNTQ=uuDQuD2mJt9fsCf / scenecut=40 / radl=0 / no-intra-refresh / ctu=32 / min-cu-size=8 / rect / no-amp / max-tu-size=16 / tu-inter-depth=2 / tu-intra-depth=2 / limit-tu=4 / rdoq-level=1 / dynamic-rd=0.00 / ssim-rd / signhide / no-tskip / nr-intra=0 / nr-inter=0 / no-constrained-intra / no-strong-intra-smoothing / max-merge=3 / limit-refs=2 / limit-modes / me=3 / subme=5 / merange=25 / temporal-mvp / weightp / weightb / no-analyze-src-pics / deblock=-1:-1 / no-sao / no-sao-non-deblock / rd=4 / no-early-skip / rskip / no-fast-intra / no-tskip-fast / no-cu-lossless / b-intra / no-splitrd-skip / rdpenalty=1 / psy-rd=0.00 / psy-rdoq=5.00 / no-rd-refine / no-lossless / cbqpoffs=-2 / crqpoffs=-2 / rc=crf / crf=19.0 / qcomp=0.70 / qpstep=4 / stats-write=0 / stats-read=0 / ipratio=1.40 / pbratio=1.30 / aq-mode=1 / aq-strength=0.80 / cutree / zone-count=0 / no-strict-cbr / qg-size=16 / no-rc-grain / qpmax=69 / qpmin=0 / no-const-vbv / sar=0 / overscan=0 / videoformat=5 / range=0 / colorprim=1 / transfer=2 / colormatrix=2 / chromaloc=0 / display-window=0 / max-cll=0,0 / min-luma=0 / max-luma=1023 / log2-max-poc-lsb=8 / vui-timing-info / vui-hrd-info / slices=1 / no-opt-qp-pps / no-opt-ref-list-length-pps / no-multi-pass-opt-rps / scenecut-bias=0.05 / no-opt-cu-delta-qp / no-aq-motion / no-hdr / no-hdr-opt / no-dhdr10-opt / analysis-reuse-level=5 / scale-factor=0 / refine-intra=0 / refine-inter=0 / refine-mv=0 / no-limit-sao / ctu-info=0 / no-lowpass-dct / refine-mv-type=0 / copy-pic=1
  33. Language                                 : Chinese
  34. Default                                  : Yes
  35. Forced                                   : No
  36. Color range                              : Limited
  37. Color primaries                          : BT.709
  38. Audio #1
  39. ID                                       : 5
  40. Format                                   : AC-3
  41. Format/Info                              : Audio Coding 3
  42. Commercial name                          : Dolby Digital
  43. Codec ID                                 : A_AC3
  44. Duration                                 : 2 h 7 min
  45. Bit rate mode                            : Constant
  46. Bit rate                                 : 384 kb/s
  47. Channel(s)                               : 6 channels
  48. Channel layout                           : L R C LFE Ls Rs
  49. Sampling rate                            : 48.0 kHz
  50. Frame rate                               : 31.250 FPS (1536 SPF)
  51. Compression mode                         : Lossy
  52. Stream size                              : 350 MiB (8%)
  53. Title                                    : 国语
  54. Language                                 : Chinese
  55. Service kind                             : Complete Main
  56. Default                                  : Yes
  57. Forced                                   : No
  58. Audio #2
  59. ID                                       : 6
  60. Format                                   : AC-3
  61. Format/Info                              : Audio Coding 3
  62. Commercial name                          : Dolby Digital
  63. Codec ID                                 : A_AC3
  64. Duration                                 : 2 h 7 min
  65. Bit rate mode                            : Constant
  66. Bit rate                                 : 640 kb/s
  67. Channel(s)                               : 6 channels
  68. Channel layout                           : L R C LFE Ls Rs
  69. Sampling rate                            : 48.0 kHz
  70. Frame rate                               : 31.250 FPS (1536 SPF)
  71. Compression mode                         : Lossy
  72. Stream size                              : 583 MiB (13%)
  73. Title                                    : 英语
  74. Language                                 : Chinese
  75. Service kind                             : Complete Main
  76. Default                                  : No
  77. Forced                                   : No
  78. Text #1
  79. ID                                       : 2
  80. Format                                   : PGS
  81. Muxing mode                              : zlib
  82. Codec ID                                 : S_HDMV/PGS
  83. Codec ID/Info                            : Picture based subtitle format used on BDs/HD-DVDs
  84. Title                                    : 繁体
  85. Language                                 : Chinese
  86. Default                                  : Yes
  87. Forced                                   : No
  88. Text #2
  89. ID                                       : 3
  90. Format                                   : PGS
  91. Muxing mode                              : zlib
  92. Codec ID                                 : S_HDMV/PGS
  93. Codec ID/Info                            : Picture based subtitle format used on BDs/HD-DVDs
  94. Title                                    : 简体
  95. Language                                 : Chinese
  96. Default                                  : No
  97. Forced                                   : No
  98. Text #3
  99. ID                                       : 4
  100. Format                                   : PGS
  101. Muxing mode                              : zlib
  102. Codec ID                                 : S_HDMV/PGS
  103. Codec ID/Info                            : Picture based subtitle format used on BDs/HD-DVDs
  104. Title                                    : 英文
  105. Language                                 : English
  106. Default                                  : No
  107. Forced                                   : No
  108. Menu
  109. 00:00:00.000                             : en:Chapter 01
  110. 00:01:52.195                             : en:Chapter 02
  111. 00:03:51.606                             : en:Chapter 03
  112. 00:05:54.604                             : en:Chapter 04
  113. 00:09:47.587                             : en:Chapter 05
  114. 00:13:40.110                             : en:Chapter 06
  115. 00:15:31.931                             : en:Chapter 07
  116. 00:17:28.964                             : en:Chapter 08
  117. 00:20:32.439                             : en:Chapter 09
  118. 00:21:55.355                             : en:Chapter 10
  119. 00:25:28.109                             : en:Chapter 11
  120. 00:27:50.293                             : en:Chapter 12
  121. 00:32:20.480                             : en:Chapter 13
  122. 00:35:42.515                             : en:Chapter 14
  123. 00:38:17.962                             : en:Chapter 15
  124. 00:40:15.413                             : en:Chapter 16
  125. 00:43:04.123                             : en:Chapter 17
  126. 00:46:27.868                             : en:Chapter 18
  127. 00:49:28.507                             : en:Chapter 19
  128. 00:51:19.659                             : en:Chapter 20
  129. 00:52:14.965                             : en:Chapter 21
  130. 00:55:53.808                             : en:Chapter 22
  131. 00:58:45.396                             : en:Chapter 23
  132. 01:02:42.675                             : en:Chapter 24
  133. 01:06:32.780                             : en:Chapter 25
  134. 01:09:36.463                             : en:Chapter 26
  135. 01:11:34.206                             : en:Chapter 27
  136. 01:13:44.503                             : en:Chapter 28
  137. 01:15:37.449                             : en:Chapter 29
  138. 01:17:28.018                             : en:Chapter 30
  139. 01:20:01.505                             : en:Chapter 31
  140. 01:22:38.453                             : en:Chapter 32
  141. 01:27:29.202                             : en:Chapter 33
  142. 01:31:05.918                             : en:Chapter 34
  143. 01:33:03.035                             : en:Chapter 35
  144. 01:35:37.106                             : en:Chapter 36
  145. 01:38:03.919                             : en:Chapter 37
  146. 01:40:33.610                             : en:Chapter 38
  147. 01:43:51.475                             : en:Chapter 39
  148. 01:46:22.667                             : en:Chapter 40
  149. 01:47:29.985                             : en:Chapter 41
  150. 01:50:10.604                             : en:Chapter 42
  151. 01:53:53.368                             : en:Chapter 43
  152. 01:58:03.117                             : en:Chapter 44
  153. 02:00:15.208                             : en:Chapter 45





此处一般会放置磁力链或种子下载链接,不过此链接需要注册会员才能看到,点击“立即注册”
磁力链下载【下载链接仅对注册会员开放,登陆后可见】
BT9527电影天堂 1、BT9527电影天堂提供的BT文件均来源于互联网抓取,只供网友学习交流、技术提升使用。
2、我们遵守BitTorrent点对点协议原则,任何版权问题请联系原资源发布商,我们不处理任何版权纠纷,谢谢!如有争议请联系邮箱:BT9527#hotmail.com(#换成@)
3、如果您发现某页面或地址有错误,请联系站长邮箱BT9527#hotmail.com(#换成@),我们会尽快处理。您的热心是对BT9527电影天堂最大的支持。
4、本站建议去正规影院观看电影以支持电影行业发展。
最新回复 (0)

你可以在 登录 or 注册 后,对此帖发表评论!

返回
发新帖