超时空接触[国英多音轨/简繁英字幕].Contact.1997.BluRay.1080p.x265.10bit.2Audios-MiniHD 6.96GB

版主小s 1月前 89

✔资源类型:暂未分类   ✔电影年份:更 早   ✔电影地区:欧美   ✔电影分类:剧情

◎标  题 超时空接触
◎译  名 接触未来(台) / 接触
◎片  名 Contact
◎年  代 1997
◎产  地 美国
◎类  别 剧情 / 科幻 / 悬疑 / 惊悚
◎语  言 英语 / 西班牙语 / 德语 / 俄语
◎上映日期 1997-07-11
◎IMDb评分 7.5/10 (265729人评价)
◎IMDb链接 https://www.imdb.com/title/tt0118884/
◎豆瓣评分 8.4/10 (94308人评价)
◎豆瓣链接 https://movie.douban.com/subject/1295647/
◎片  长 150 分钟
◎导  演 罗伯特·泽米吉斯 Robert Zemeckis
◎编  剧 詹姆士·V·哈特 James V. Hart
       迈克尔·戈登伯格 Michael Goldenberg
       卡尔·萨根 Carl Sagan
       安·德鲁扬 Ann Druyan
◎演  员 吉娜·马隆 Jena Malone
       大卫·摩斯 David Morse
       朱迪·福斯特 Jodie Foster
       杰弗里·布莱克 Geoffrey Blake
       威廉·菲克纳 William Fichtner
       蒂莫西·麦克尼尔 Timothy McNeil
       马修·麦康纳 Matthew McConaughey
       汤姆·斯凯里特 Tom Skerritt
       亨利斯·特罗齐尔 Henry Strozier
       马克斯·马蒂尼 Max Martini
       拉里·金 Larry King
       Dan Gifford Dan Gifford
       詹姆斯·伍兹 James Woods
       安吉拉·贝塞特 Angela Bassett
       玛丽亚·克莱斯特·阿拉拉斯 Maria Celeste Arraras
       Tabitha Soren Tabitha Soren
       Geraldo Rivera Geraldo Rivera
       Ian Whitcomb Ian Whitcomb
       杰·雷诺 Jay Leno
       Robert D. Novak Robert D. Novak
       Geraldine A. Ferraro Geraldine A. Ferraro
       安·德鲁扬 Ann Druyan
       罗伯·劳 Rob Lowe
       杰克·布塞 Jake Busey
       约翰·赫特 John Hurt
       大卫·圣.詹姆斯 David St. James
       John Holliman John Holliman
       Dee Dee Myers Dee Dee Myers
       Bryant Gumbel Bryant Gumbel
       Linden Soles Linden Soles
       斯蒂芬·福特 Steven Ford
       菲利普·贝格龙 Philippe Bergeron
       Anthony Hamilton Anthony Hamilton
       马克·麦考利 Marc Macaulay
       塔克·斯莫尔伍德 Tucker Smallwood
       冈本玉二 Yuji Okumoto
       格里·格里芬 Gerry Griffin
       亚历克斯·维多夫 Alex Veadov
       罗宾·甘梅尔 Robin Gammell
       Bernard Shaw Bernard Shaw
       克里斯托弗·瑞安·温特斯 Kristoffer Ryan Winters
       尼尔·阿姆斯特朗 Neil Armstrong
       马克·贝利 Mark Bailey
       Matt Bennett Matt Bennett
       克里斯托弗·波耶尔 Christopher Boyer
       Ray Buffer Ray Buffer
       Candice Cook Candice Cook
       比尔·克林顿 Bill Clinton
       户田惠子 Keiko Toda
       威廉·B·卡普兰 William B. Kaplan
       史蒂夫·斯达克 Steve Starkey
       琳达·奥布斯特 Lynda Obst
       亚伦·史维斯查 Alan Silvestri
       唐·伯吉斯 Don Burgess
       阿瑟·施密特 Arthur Schmidt
       维多利亚·伯罗斯 Victoria Burrows
       埃德·韦罗 Ed Verreaux
       Lawrence A. Hubbs Lawrence A. Hubbs
       Bruce Crone Bruce Crone
       乔安娜·约翰斯顿 Joanna Johnston
       Jean-Luc Russier Jean-Luc Russier
       基斯·范德兰 Keith VanderLaan
       Steve Artmont Steve Artmont
       Vivian McAteer Vivian McAteer
       黛博拉·拉·米亚·德内弗 Deborah La Mia Denaver
       Margaret E. Elliott Margaret E. Elliott
       Janice Alexander Janice Alexander
       Frances Mathias Frances Mathias
       布鲁斯·莫里亚蒂 Bruce Moriarty
       史蒂夫·斯达克 Steve Starkey
       David Ticotin David Ticotin
       保罗·哈特森 Paul Huston
       布莱恩·范特·赫尔 Brian Van't Hul
       Mark Holmes Mark Holmes
       罗伯特·韦弗 Robert Weaver
       Chad Taylor Chad Taylor
       David Emery David Emery
       肯尼思·琼斯 Kenneth Jones
       克里斯·琼恩 Chris Juen
       Iain Kennedy Iain Kennedy
       Bill Mather Bill Mather
       克里斯蒂安·瑞沃斯 Christian Rivers
       Mark S. Miller Mark S. Miller
       朱莉娅·弗雷 Julia Frey
       丹尼·穆德特 Danny Mudgett
       Craig A. Mumma Craig A. Mumma
       肯·拉斯顿 Ken Ralston
       科林·德罗布尼斯 Colin Drobnis
       Theresa Corrao Theresa Corrao
       David Jones David Jones
       Debbie Denise Debbie Denise
       马特·艾特肯 Matt Aitken
       Kara Vandeleur Kara Vandeleur
       Jean-Luc Azzis Jean-Luc Azzis
       蒂姆·亚历山大 Tim Alexander
       迈克尔·L·芬克 Michael L. Fink
       艾丽尔·维拉斯科-肖 Ariel Velasco-Shaw
       杰奎·巴恩布鲁克 Jacquie Barnbrook
       吉姆·伯尔尼  Jim Berney
       莱斯·伯恩斯汀 Les Bernstien
       罗恩·布林克曼 Ron Brinkmann
       斯蒂芬·罗森包姆 Stephen Rosenbaum
       杰罗姆·陈 Jerome Chen
       彼得·杰克逊 Peter Jackson
       Michael Conte Michael Conte
       David Stump David Stump

◎标  签 科幻 / 美国 / 经典 / 剧情 / JodieFoster / 1997 / 美国电影 / 电影

◎简  介
  艾莉·爱罗维(茱迪·福斯特饰)自幼就对无线电通讯情有独钟。长大后,她成为一名天文学家,其项目内容为接收外太空信号。她希望能借此找到宇宙其他文明的存在。天才的理想得到的却是投资者的冷眼相看,幸好有神秘人帮助艾莉继续工作。                                    
                                一次偶然的机会,艾莉收到了来自织女星的频率信号,似乎证明了艾莉一直以来的工作是正确的。但这带来的不是她个人事业的成功,而是政治、社会、宗教、国家各个角度的矛盾与讨论。深陷这一切暴风中心的艾莉,更要面对与神职人士帕尔默·乔丝(马修·麦康纳饰)的感情纠葛。                                    
                                个人与世界,真相与现实,艾莉面临着远远超越学术范围的挑战。
  1. ##### MediaInfo ######
  2. General
  3. Unique ID                                : 196549119285537197831651861224899913457 (0x93DDFBC28F48C3B57682E9A000BEA6F1)
  4. Complete name                            : Contact.1997.BluRay.1080p.x265.10bit.2Audios-MiniHD.mkv
  5. Format                                   : Matroska
  6. Format version                           : Version 4
  7. File size                                : 6.96 GiB
  8. Duration                                 : 2 h 29 min
  9. Overall bit rate                         : 6 656 kb/s
  10. Encoded date                             : UTC 2018-02-01 03:51:23
  11. Writing application                      : mkvmerge v20.0.0 ('I Am The Sun') 64-bit
  12. Writing library                          : libebml v1.3.5 + libmatroska v1.4.8
  13. Video
  14. ID                                       : 1
  15. Format                                   : HEVC
  16. Format/Info                              : High Efficiency Video Coding
  17. Format profile                           : Main 10@L4@High
  18. Codec ID                                 : V_MPEGH/ISO/HEVC
  19. Duration                                 : 2 h 29 min
  20. Bit rate                                 : 5 462 kb/s
  21. Width                                    : 1 920 pixels
  22. Height                                   : 804 pixels
  23. Display aspect ratio                     : 2.40:1
  24. Frame rate mode                          : Constant
  25. Frame rate                               : 23.976 (24000/1001/53354) FPS
  26. Color space                              : YUV
  27. Chroma subsampling                       : 4:2:0
  28. Bit depth                                : 10 bits
  29. Bits/(Pixel*Frame)                       : 0.148
  30. Stream size                              : 5.71 GiB (82%)
  31. Title                                    : 视频
  32. Default                                  : Yes
  33. Forced                                   : No
  34. Color range                              : Limited
  35. Color primaries                          : BT.709
  36. Audio #1
  37. ID                                       : 2
  38. Format                                   : AC-3
  39. Format/Info                              : Audio Coding 3
  40. Commercial name                          : Dolby Digital
  41. Codec ID                                 : A_AC3
  42. Duration                                 : 2 h 29 min
  43. Bit rate mode                            : Constant
  44. Bit rate                                 : 640 kb/s
  45. Channel(s)                               : 6 channels
  46. Channel layout                           : L R C LFE Ls Rs
  47. Sampling rate                            : 48.0 kHz
  48. Frame rate                               : 31.250 FPS (1536 SPF)
  49. Compression mode                         : Lossy
  50. Stream size                              : 685 MiB (10%)
  51. Title                                    : 英语ac3-5.1@640kbps
  52. Language                                 : English
  53. Service kind                             : Complete Main
  54. Default                                  : Yes
  55. Forced                                   : No
  56. Audio #2
  57. ID                                       : 3
  58. Format                                   : AC-3
  59. Format/Info                              : Audio Coding 3
  60. Commercial name                          : Dolby Digital
  61. Codec ID                                 : A_AC3
  62. Duration                                 : 2 h 29 min
  63. Bit rate mode                            : Constant
  64. Bit rate                                 : 448 kb/s
  65. Channel(s)                               : 6 channels
  66. Channel layout                           : L R C LFE Ls Rs
  67. Sampling rate                            : 48.0 kHz
  68. Frame rate                               : 31.250 FPS (1536 SPF)
  69. Compression mode                         : Lossy
  70. Stream size                              : 479 MiB (7%)
  71. Title                                    : 国配ac3-5.1@448kbps
  72. Language                                 : Chinese
  73. Service kind                             : Complete Main
  74. Default                                  : No
  75. Forced                                   : No
  76. Text #1
  77. ID                                       : 4
  78. Format                                   : PGS
  79. Muxing mode                              : zlib
  80. Codec ID                                 : S_HDMV/PGS
  81. Codec ID/Info                            : Picture based subtitle format used on BDs/HD-DVDs
  82. Duration                                 : 2 h 19 min
  83. Bit rate                                 : 29.4 kb/s
  84. Count of elements                        : 3677
  85. Stream size                              : 29.3 MiB (0%)
  86. Title                                    : 简中
  87. Language                                 : Chinese
  88. Default                                  : Yes
  89. Forced                                   : No
  90. Text #2
  91. ID                                       : 5
  92. Format                                   : PGS
  93. Muxing mode                              : zlib
  94. Codec ID                                 : S_HDMV/PGS
  95. Codec ID/Info                            : Picture based subtitle format used on BDs/HD-DVDs
  96. Duration                                 : 2 h 19 min
  97. Bit rate                                 : 53.4 kb/s
  98. Count of elements                        : 3677
  99. Stream size                              : 53.2 MiB (1%)
  100. Title                                    : 简英
  101. Default                                  : No
  102. Forced                                   : No
  103. Text #3
  104. ID                                       : 6
  105. Format                                   : PGS
  106. Muxing mode                              : zlib
  107. Codec ID                                 : S_HDMV/PGS
  108. Codec ID/Info                            : Picture based subtitle format used on BDs/HD-DVDs
  109. Duration                                 : 2 h 19 min
  110. Bit rate                                 : 30.4 kb/s
  111. Count of elements                        : 3677
  112. Stream size                              : 30.3 MiB (0%)
  113. Title                                    : 繁中
  114. Language                                 : Chinese
  115. Default                                  : No
  116. Forced                                   : No
  117. Text #4
  118. ID                                       : 7
  119. Format                                   : PGS
  120. Muxing mode                              : zlib
  121. Codec ID                                 : S_HDMV/PGS
  122. Codec ID/Info                            : Picture based subtitle format used on BDs/HD-DVDs
  123. Duration                                 : 2 h 19 min
  124. Bit rate                                 : 54.3 kb/s
  125. Count of elements                        : 3677
  126. Stream size                              : 54.1 MiB (1%)
  127. Title                                    : 繁英
  128. Default                                  : No
  129. Forced                                   : No
  130. Text #5
  131. ID                                       : 8
  132. Format                                   : PGS
  133. Muxing mode                              : zlib
  134. Codec ID                                 : S_HDMV/PGS
  135. Codec ID/Info                            : Picture based subtitle format used on BDs/HD-DVDs
  136. Duration                                 : 2 h 19 min
  137. Bit rate                                 : 41.8 kb/s
  138. Count of elements                        : 3658
  139. Stream size                              : 41.7 MiB (1%)
  140. Title                                    : 英语
  141. Language                                 : English
  142. Default                                  : No
  143. Forced                                   : No
  144. Menu
  145. 00:00:00.000                             : en:Chapter 01
  146. 00:03:52.065                             : en:Chapter 02
  147. 00:07:28.657                             : en:Chapter 03
  148. 00:11:19.554                             : en:Chapter 04
  149. 00:13:52.040                             : en:Chapter 05
  150. 00:16:07.383                             : en:Chapter 06
  151. 00:20:58.382                             : en:Chapter 07
  152. 00:25:18.851                             : en:Chapter 08
  153. 00:28:42.638                             : en:Chapter 09
  154. 00:31:11.036                             : en:Chapter 10
  155. 00:33:46.816                             : en:Chapter 11
  156. 00:43:48.417                             : en:Chapter 12
  157. 00:47:11.454                             : en:Chapter 13
  158. 00:49:34.346                             : en:Chapter 14
  159. 00:51:52.067                             : en:Chapter 15
  160. 00:55:28.158                             : en:Chapter 16
  161. 00:58:47.315                             : en:Chapter 17
  162. 01:01:22.220                             : en:Chapter 18
  163. 01:03:51.786                             : en:Chapter 19
  164. 01:10:52.707                             : en:Chapter 20
  165. 01:12:34.433                             : en:Chapter 21
  166. 01:15:02.039                             : en:Chapter 22
  167. 01:17:32.565                             : en:Chapter 23
  168. 01:19:43.362                             : en:Chapter 24
  169. 01:22:55.137                             : en:Chapter 25
  170. 01:28:17.667                             : en:Chapter 26
  171. 01:34:01.261                             : en:Chapter 27
  172. 01:36:02.423                             : en:Chapter 28
  173. 01:38:48.172                             : en:Chapter 29
  174. 01:41:42.930                             : en:Chapter 30
  175. 01:45:28.739                             : en:Chapter 31
  176. 01:50:27.412                             : en:Chapter 32
  177. 01:54:27.360                             : en:Chapter 33
  178. 01:59:09.142                             : en:Chapter 34
  179. 02:01:28.948                             : en:Chapter 35
  180. 02:04:58.908                             : en:Chapter 36
  181. 02:07:57.712                             : en:Chapter 37
  182. 02:09:42.191                             : en:Chapter 38
  183. 02:13:14.153                             : en:Chapter 39
  184. 02:16:05.532                             : en:Chapter 40
  185. 02:18:16.955                             : en:Chapter 41
  186. 02:19:04.878                             : en:Chapter 42
  187. 02:29:40.638                             : en:Chapter 43





此处一般会放置磁力链或种子下载链接,不过此链接需要注册会员才能看到,点击“立即注册”
磁力链下载【下载链接仅对注册会员开放,登陆后可见】
BT9527电影天堂 1、BT9527电影天堂提供的BT文件均来源于互联网抓取,只供网友学习交流、技术提升使用。
2、我们遵守BitTorrent点对点协议原则,任何版权问题请联系原资源发布商,我们不处理任何版权纠纷,谢谢!如有争议请联系邮箱:BT9527#hotmail.com(#换成@)
3、如果您发现某页面或地址有错误,请联系站长邮箱BT9527#hotmail.com(#换成@),我们会尽快处理。您的热心是对BT9527电影天堂最大的支持。
4、本站建议去正规影院观看电影以支持电影行业发展。
最新回复 (0)

你可以在 登录 or 注册 后,对此帖发表评论!

返回
发新帖