贼巢[简特效字幕].Den.of.Thieves.2018.BluRay.UNRATED.1080p.x265.10bit-MiniHD 8.44GB

版主小s 1月前 107

✔资源类型:暂未分类   ✔电影年份:2018   ✔电影地区:欧美   ✔电影分类:动作

◎标  题 贼巢
◎译  名 极盗战(台) / 贼斗(港) / Criminal Squad
◎片  名 Den of Thieves
◎年  代 2018
◎产  地 美国
◎类  别 动作 / 惊悚 / 犯罪
◎语  言 英语
◎上映日期 2018-01-19(美国)
◎IMDb评分 7/10 (102855人评价)
◎IMDb链接 https://www.imdb.com/title/tt1259528/
◎豆瓣评分 7.4/10 (23985人评价)
◎豆瓣链接 https://movie.douban.com/subject/3143727/
◎片  长 140分钟
◎导  演 克里斯蒂安·古德加斯特 Christian Gudegast
◎编  剧 克里斯蒂安·古德加斯特 Christian Gudegast
       保罗·舒尔灵 Paul Scheuring
◎演  员 杰拉德·巴特勒 Gerard Butler
       巴勃罗·施瑞博尔 Pablo Schreiber
       小奥谢拉·杰克逊 O'Shea Jackson Jr.
       50分 50 Cent
       梅多·威廉姆斯 Meadow Williams
       莫里斯·孔特 Maurice Compte
       布莱恩·范·霍尔特 Brian Van Holt
       伊万·琼斯 Evan Jones
       莫·麦克雷 Mo McRae
       凯维·莱曼-默塞尤 Kaiwi Lyman-Mersereau
       道恩·奥利弗瑞 Dawn Olivieri
       艾瑞克·布里登 Eric Braeden
       约旦·布里奇斯 Jordan Bridges
       刘易斯·陈 Lewis Tan
       库珀·安德鲁斯 Cooper Andrews
       迈克尔·帕帕约翰 Michael Papajohn
       斯德法诺斯·米尔特萨卡基斯 Stefanos Miltsakakis
       杰梅因·里弗斯 Jermaine Rivers
       尼古拉斯·M·勒布 Nicholas M. Loeb
       特雷西·邦纳 Tracey Bonner
       马修·康威尔 Matthew Cornwell
       欧勒格·塔克塔罗夫 Oleg Taktarov
       索尼娅·巴摩斯 Sonya Balmores
       胡安·贾斯帕 Juan Gaspard
       马库斯·拉沃伊 Marcus LaVoi
       克里夫·马丁内斯 Cliff Martinez

◎标  签 犯罪 / 动作 / 警匪 / 枪战 / 美国 / 悬疑 / 2018 / 暴力

◎简  介
  从未被劫的银行,三千万无记认钞票,引爆连环盗计。一群以梅雷亚(巴勃罗·施瑞博尔 饰)为首的高智罪犯,手法高超、火力强横、而且沉迷打劫;纵使犯案累累,却甚少破绽,令警方束手无策。一次押款车劫案后,他们的党羽唐尼(奥谢拉·杰克逊 饰)被辣手神探尼克(杰拉德·巴特勒 饰)识破,更从他身上知道匪帮下一个目标,是攻破从未遇劫的洛杉矶联邦储备银行,从中盗取三千万即将销毁的旧钞!于是尼克布下天罗地网,想趁机把他们一网成擒。然而,魔高一丈;梅雷亚以声东击西之法,引开警方注意。尼克错失擒获他们的良机,唯有尾随追击,双方展开连场枪战。虽然最终截获贼匪,但赃款竟全数不翼而飞!局中有局,究竟谁是取得巨款的幕后赢家?
  1. ##### MediaInfo ######
  2. General
  3. Unique ID                                : 186810036340890069634154958934463800371 (0x8C8A4DE5F4B6CEF78F12ACD0DC44E433)
  4. Complete name                            : Den.of.Thieves.2018.BluRay.UNRATED.1080p.x265.10bit-MiniHD.mkv
  5. Format                                   : Matroska
  6. Format version                           : Version 4
  7. File size                                : 8.44 GiB
  8. Duration                                 : 2 h 28 min
  9. Overall bit rate                         : 8 120 kb/s
  10. Movie name                               : Den.of.Thieves.2018.UNRATED.1080p.BluRay.REMUX.AVC.DTS-HD.MA.5.1-FGT
  11. Encoded date                             : UTC 2018-05-29 11:22:47
  12. Writing application                      : mkvmerge v16.0.0 ('Protest') 64-bit
  13. Writing library                          : libebml v1.3.5 + libmatroska v1.4.8 / ShanaEncoder
  14. Attachments                              : p2509782231.jpg
  15. Video
  16. ID                                       : 1
  17. Format                                   : HEVC
  18. Format/Info                              : High Efficiency Video Coding
  19. Format profile                           : Main 10@L4@Main
  20. Codec ID                                 : V_MPEGH/ISO/HEVC
  21. Duration                                 : 2 h 28 min
  22. Bit rate                                 : 7 443 kb/s
  23. Width                                    : 1 920 pixels
  24. Height                                   : 802 pixels
  25. Display aspect ratio                     : 2.40:1
  26. Frame rate mode                          : Constant
  27. Frame rate                               : 23.976 (24000/1001/53354) FPS
  28. Color space                              : YUV
  29. Chroma subsampling                       : 4:2:0
  30. Bit depth                                : 10 bits
  31. Bits/(Pixel*Frame)                       : 0.202
  32. Stream size                              : 7.74 GiB (92%)
  33. Writing library                          : x265 2.6:[Windows][GCC 4.9.2][64 bit] 10bit
  34. Encoding settings                        : cpuid=533541050111 / frame-threads=3 / wpp / no-pmode / no-pme / no-psnr / no-ssim / log-level=2 / input-csp=1 / input-res=1920x802 / interlace=0 / total-frames=0 / level-idc=0 / high-tier=1 / uhd-bd=0 / ref=5 / no-allow-non-conformance / no-repeat-headers / annexb / no-aud / no-hrd / info / hash=0 / no-temporal-layers / no-open-gop / min-keyint=1 / keyint=360 / bframes=8 / b-adapt=2 / b-pyramid / bframe-bias=0 / rc-lookahead=60 / lookahead-slices=4 / NTMzNTQ=uuDQuD2mJt9fsCf / scenecut=40 / no-intra-refresh / ctu=32 / min-cu-size=8 / no-rect / no-amp / max-tu-size=16 / tu-inter-depth=2 / tu-intra-depth=2 / limit-tu=4 / rdoq-level=1 / dynamic-rd=0.00 / no-ssim-rd / signhide / tskip / nr-intra=0 / nr-inter=0 / no-constrained-intra / no-strong-intra-smoothing / max-merge=4 / limit-refs=2 / limit-modes / me=3 / subme=5 / merange=25 / no-temporal-mvp / weightp / weightb / no-analyze-src-pics / deblock=-1:-1 / no-sao / no-sao-non-deblock / rd=4 / no-early-skip / rskip / no-fast-intra / no-tskip-fast / no-cu-lossless / b-intra / no-splitrd-skip / rdpenalty=0 / psy-rd=2.00 / psy-rdoq=4.00 / no-rd-refine / analysis-reuse-mode=0 / no-lossless / cbqpoffs=-2 / crqpoffs=-2 / rc=crf / crf=21.0 / qcomp=0.70 / qpstep=4 / stats-write=0 / stats-read=0 / ipratio=1.40 / pbratio=1.30 / aq-mode=2 / aq-strength=0.80 / no-cutree / zone-count=0 / no-strict-cbr / qg-size=8 / no-rc-grain / qpmax=61 / qpmin=0 / no-const-vbv / sar=1 / overscan=0 / videoformat=5 / range=0 / colorprim=1 / transfer=2 / colormatrix=2 / chromaloc=0 / display-window=0 / max-cll=0,0 / min-luma=0 / max-luma=1023 / log2-max-poc-lsb=8 / vui-timing-info / vui-hrd-info / slices=1 / no-opt-qp-pps / no-opt-ref-list-length-pps / no-multi-pass-opt-rps / scenecut-bias=0.05 / no-opt-cu-delta-qp / no-aq-motion / no-hdr / no-hdr-opt / no-dhdr10-opt / analysis-reuse-level=5 / scale-factor=0 / refine-intra=0 / refine-inter=0 / refine-mv=0 / no-limit-sao / ctu-info=0 / no-lowpass-dct / refine-mv-type=0 / copy-pic=1
  35. Language                                 : English
  36. Default                                  : No
  37. Forced                                   : No
  38. Color range                              : Limited
  39. Color primaries                          : BT.709
  40. Audio
  41. ID                                       : 2
  42. Format                                   : AC-3
  43. Format/Info                              : Audio Coding 3
  44. Commercial name                          : Dolby Digital
  45. Codec ID                                 : A_AC3
  46. Duration                                 : 2 h 28 min
  47. Bit rate mode                            : Constant
  48. Bit rate                                 : 640 kb/s
  49. Channel(s)                               : 6 channels
  50. Channel layout                           : L R C LFE Ls Rs
  51. Sampling rate                            : 48.0 kHz
  52. Frame rate                               : 31.250 FPS (1536 SPF)
  53. Compression mode                         : Lossy
  54. Stream size                              : 681 MiB (8%)
  55. Language                                 : English
  56. Service kind                             : Complete Main
  57. Default                                  : Yes
  58. Forced                                   : No
  59. Text
  60. ID                                       : 3
  61. Format                                   : PGS
  62. Muxing mode                              : zlib
  63. Codec ID                                 : S_HDMV/PGS
  64. Codec ID/Info                            : Picture based subtitle format used on BDs/HD-DVDs
  65. Duration                                 : 2 h 21 min
  66. Bit rate                                 : 79.7 kb/s
  67. Count of elements                        : 3507
  68. Stream size                              : 80.9 MiB (1%)
  69. Title                                    : 特效简体中英
  70. Language                                 : Chinese
  71. Default                                  : Yes
  72. Forced                                   : No
  73. Menu
  74. 00:00:00.000                             : :Chapter 01
  75. 00:09:38.869                             : :Chapter 02
  76. 00:17:31.967                             : :Chapter 03
  77. 00:24:03.733                             : :Chapter 04
  78. 00:30:30.411                             : :Chapter 05
  79. 00:43:48.083                             : :Chapter 06
  80. 00:49:54.992                             : :Chapter 07
  81. 00:58:58.284                             : :Chapter 08
  82. 01:05:05.109                             : :Chapter 09
  83. 01:10:42.780                             : :Chapter 10
  84. 01:16:21.368                             : :Chapter 11
  85. 01:25:11.481                             : :Chapter 12
  86. 01:29:54.514                             : :Chapter 13
  87. 01:35:50.870                             : :Chapter 14
  88. 01:40:39.908                             : :Chapter 15
  89. 01:50:22.532                             : :Chapter 16
  90. 01:58:30.728                             : :Chapter 17
  91. 02:04:59.909                             : :Chapter 18
  92. 02:14:27.976                             : :Chapter 19
  93. 02:22:15.318                             : :Chapter 20



此处一般会放置磁力链或种子下载链接,不过此链接需要注册会员才能看到,点击“立即注册”
磁力链下载【下载链接仅对注册会员开放,登陆后可见】
BT9527电影天堂 1、BT9527电影天堂提供的BT文件均来源于互联网抓取,只供网友学习交流、技术提升使用。
2、我们遵守BitTorrent点对点协议原则,任何版权问题请联系原资源发布商,我们不处理任何版权纠纷,谢谢!如有争议请联系邮箱:BT9527#hotmail.com(#换成@)
3、如果您发现某页面或地址有错误,请联系站长邮箱BT9527#hotmail.com(#换成@),我们会尽快处理。您的热心是对BT9527电影天堂最大的支持。
4、本站建议去正规影院观看电影以支持电影行业发展。
最新回复 (0)

你可以在 登录 or 注册 后,对此帖发表评论!

返回
发新帖