蝴蝶效应[简繁英字幕].Butterfly.Effect.DC.2004.BluRay.1080p.x265.10bit-MiniHD 5.51GB

版主小s 1月前 73

✔资源类型:暂未分类   ✔电影年份:更 早   ✔电影地区:欧美   ✔电影分类:剧情

◎标  题 蝴蝶效应
◎片  名 The Butterfly Effect
◎年  代 2004
◎产  地 美国 / 加拿大
◎类  别 剧情 / 科幻 / 悬疑 / 惊悚
◎语  言 英语
◎上映日期 2004-01-23(美国)
◎IMDb评分 7.6/10 (470558人评价)
◎IMDb链接 https://www.imdb.com/title/tt0289879/
◎豆瓣评分 8.8/10 (808393人评价)
◎豆瓣链接 https://movie.douban.com/subject/1292343/
◎片  长 113分钟
◎导  演 埃里克·布雷斯 Eric Bress
       J·麦基·格鲁伯 J. Mackye Gruber
◎编  剧 J·麦基·格鲁伯 J. Mackye Gruber
       埃里克·布雷斯 Eric Bress
◎演  员 阿什顿·库彻 Ashton Kutcher
       梅洛拉·沃尔特斯 Melora Walters
       艾米·斯马特 Amy Smart
       埃尔登·汉森 Elden Henson
       威廉姆·李·斯科特 William Lee Scott
       约翰·帕特里克·阿梅多利 John Patrick Amedori
       艾琳·戈洛瓦娅 Irene Gorovaia
       凯文·G·施密特 Kevin G. Schmidt
       杰西·詹姆斯 Jesse James
       罗根·勒曼 Logan Lerman
       莎拉·威多斯 Sarah Widdows
       杰克·凯斯 Jake Kaese
       卡梅隆·布莱特 Cameron Bright
       埃里克·斯托尔兹 Eric Stoltz
       考乐姆·吉斯·雷尼 Callum Keith Rennie
       凯文·杜兰 Kevin Durand
       伊桑·苏普利 Ethan Suplee
       杰西·哈奇 Jesse Hutch
       Shannon Grover Shannon Grover
       Toby Lindala Toby Lindala
       Lance Webb Lance Webb
       Felix Fox Felix Fox
       沃伦·汉拿 Warren Hanna
       苏西·斯汀格尔 Suzi Stingl

◎标  签 悬疑 / 心理 / 科幻 / 美国 / 剧情 / 惊悚 / 经典 / 人性

◎简  介
  伊万(艾什顿·库奇 Ashton Kutcher 饰)曾经有一个糟糕的童年,因为他行为闯下了大祸,令他童年充满不堪回忆的往事。而事实上,他确实只是依稀记得一点可怕的情景,这些情景一直纠缠着他的正常生活。伊万接受心理学家建议,把琐碎生活记在记事本里,却偶然发现通过记事本回到过去。                                    
                                这时他才清楚记起,童年时候的自己做了那么多的错事。他幻想着用现在的意识,潜入童年的身体,去弥补种种过失给人们带来的伤害,尤其是希望与当年暗恋的凯西最终走回一起。然而他一次次的跨越时空的更改,只能越来越招致现实世界的不可救药。一切就像蝴蝶效应般,牵一发而动全身。
  1. ##### MediaInfo ######
  2. General
  3. Unique ID                                : 2456184620180889474212367371513684371 (0x1D90B405DA88DC43BCC4AAAE9BCE193)
  4. Complete name                            : Butterfly.Effect.DC.2004.BluRay.1080p.x265.10bit-MiniHD.mkv
  5. Format                                   : Matroska
  6. Format version                           : Version 4
  7. File size                                : 5.51 GiB
  8. Duration                                 : 1 h 59 min
  9. Overall bit rate                         : 6 591 kb/s
  10. Encoded date                             : UTC 2018-01-17 14:30:11
  11. Writing application                      : mkvmerge v19.0.0 ('Brave Captain') 64-bit
  12. Writing library                          : libebml v1.3.5 + libmatroska v1.4.8
  13. Video
  14. ID                                       : 1
  15. Format                                   : HEVC
  16. Format/Info                              : High Efficiency Video Coding
  17. Format profile                           : Main 10@L4@High
  18. Codec ID                                 : V_MPEGH/ISO/HEVC
  19. Duration                                 : 1 h 59 min
  20. Bit rate                                 : 5 949 kb/s
  21. Width                                    : 1 920 pixels
  22. Height                                   : 1 080 pixels
  23. Display aspect ratio                     : 16:9
  24. Frame rate mode                          : Constant
  25. Frame rate                               : 23.976 (24000/1001/53354) FPS
  26. Color space                              : YUV
  27. Chroma subsampling                       : 4:2:0
  28. Bit depth                                : 10 bits
  29. Bits/(Pixel*Frame)                       : 0.120
  30. Stream size                              : 4.97 GiB (90%)
  31. Title                                    : video.hevc
  32. Default                                  : Yes
  33. Forced                                   : No
  34. Color range                              : Limited
  35. Color primaries                          : BT.709
  36. Audio
  37. ID                                       : 2
  38. Format                                   : AC-3
  39. Format/Info                              : Audio Coding 3
  40. Commercial name                          : Dolby Digital
  41. Codec ID                                 : A_AC3
  42. Duration                                 : 1 h 59 min
  43. Bit rate mode                            : Constant
  44. Bit rate                                 : 640 kb/s
  45. Channel(s)                               : 6 channels
  46. Channel layout                           : L R C LFE Ls Rs
  47. Sampling rate                            : 48.0 kHz
  48. Frame rate                               : 31.250 FPS (1536 SPF)
  49. Compression mode                         : Lossy
  50. Stream size                              : 548 MiB (10%)
  51. Title                                    : 英语.english.ac3-5.1@640kbps
  52. Language                                 : English
  53. Service kind                             : Complete Main
  54. Default                                  : Yes
  55. Forced                                   : No
  56. Text #1
  57. ID                                       : 3
  58. Format                                   : UTF-8
  59. Codec ID                                 : S_TEXT/UTF8
  60. Codec ID/Info                            : UTF-8 Plain Text
  61. Duration                                 : 1 h 53 min
  62. Bit rate                                 : 60 b/s
  63. Count of elements                        : 1454
  64. Stream size                              : 50.3 KiB (0%)
  65. Title                                    : 简中.srt
  66. Language                                 : Chinese
  67. Default                                  : Yes
  68. Forced                                   : No
  69. Text #2
  70. ID                                       : 4
  71. Format                                   : UTF-8
  72. Codec ID                                 : S_TEXT/UTF8
  73. Codec ID/Info                            : UTF-8 Plain Text
  74. Duration                                 : 1 h 53 min
  75. Bit rate                                 : 57 b/s
  76. Count of elements                        : 1460
  77. Stream size                              : 48.0 KiB (0%)
  78. Title                                    : 繁中.srt
  79. Language                                 : Chinese
  80. Default                                  : No
  81. Forced                                   : No
  82. Text #3
  83. ID                                       : 5
  84. Format                                   : UTF-8
  85. Codec ID                                 : S_TEXT/UTF8
  86. Codec ID/Info                            : UTF-8 Plain Text
  87. Duration                                 : 1 h 52 min
  88. Bit rate                                 : 65 b/s
  89. Count of elements                        : 1447
  90. Stream size                              : 53.9 KiB (0%)
  91. Title                                    : 英语.ENGLSIH.srt
  92. Language                                 : English
  93. Default                                  : No
  94. Forced                                   : No





此处一般会放置磁力链或种子下载链接,不过此链接需要注册会员才能看到,点击“立即注册”
磁力链下载【下载链接仅对注册会员开放,登陆后可见】
BT9527电影天堂 1、BT9527电影天堂提供的BT文件均来源于互联网抓取,只供网友学习交流、技术提升使用。
2、我们遵守BitTorrent点对点协议原则,任何版权问题请联系原资源发布商,我们不处理任何版权纠纷,谢谢!如有争议请联系邮箱:BT9527#hotmail.com(#换成@)
3、如果您发现某页面或地址有错误,请联系站长邮箱BT9527#hotmail.com(#换成@),我们会尽快处理。您的热心是对BT9527电影天堂最大的支持。
4、本站建议去正规影院观看电影以支持电影行业发展。
最新回复 (0)

你可以在 登录 or 注册 后,对此帖发表评论!

返回
发新帖