雪国列车[国英多音轨/简繁英字幕].Snowpiercer.2013.KOR.BluRay.1080p.x265.10bit.2Audio-MiniHD 6.40GB

版主小s 1月前 137

✔资源类型:暂未分类   ✔电影年份:2013   ✔电影地区:韩国   ✔电影分类:剧情

◎标  题 雪国列车
◎译  名 末世列车(港) / 末日列车(台) / 最后的列车 / Snowpiercer
◎片  名 설국열차
◎年  代 2013
◎产  地 韩国 / 捷克
◎类  别 剧情 / 动作 / 科幻
◎语  言 英语 / 韩语 / 法语 / 日语 / 捷克语 / 德语
◎上映日期 2014-03-17(中国大陆) / 2013-08-01(韩国) / 2014-06-27(美国)
◎IMDb评分 7.1/10 (344769人评价)
◎IMDb链接 https://www.imdb.com/title/tt1706620/
◎豆瓣评分 7.5/10 (396658人评价)
◎豆瓣链接 https://movie.douban.com/subject/3071441/
◎片  长 125分钟(中国大陆)
◎导  演 奉俊昊 Joon-ho Bong
◎编  剧 奉俊昊 Joon-ho Bong
       凯利·玛斯特森 Kelly Masterson
       雅克·罗布 Jacques Lob
       本杰明·罗格朗 Benjamin Legrand
       让-马克·罗切特 Jean-Marc Rochette
◎演  员 克里斯·埃文斯 Chris Evans
       宋康昊 Kang-ho Song
       艾德·哈里斯 Ed Harris
       约翰·赫特 John Hurt
       蒂尔达·斯文顿 Tilda Swinton
       杰米·贝尔 Jamie Bell
       奥克塔维亚·斯宾瑟 Octavia Spencer
       艾文·布莱纳 Ewen Bremner
       艾丽森·皮尔 Alison Pill
       高雅星 Ah-sung Ko
       斯蒂夫·朴 Steve Park
       卢克·帕斯夸尼洛 Luke Pasqualino
       肯尼·道提 Kenny Doughty
       克拉克·米德尔顿 Clark Middleton
       弗拉德·伊凡诺夫 Vlad Ivanov
       阿德南·哈斯科维奇 Adnan Haskovic
       艾玛·列维 Emma Levie
       托马斯·勒马尔奎斯 Tómas Lemarquis
       Igor Juric Igor Juric
       马坎索尼·雷斯 Marcanthonee Reis
       吉姆·海伊 Jim High
       Griffin Seymour Griffin Seymour
       肖恩·康纳·伦威克 Sean Connor Renwick
       布莱恩·科林·弗利 Brian Colin Foley
       肯德里克·昂 Kendrick Ong
       达纳·格林 Dana Green
       派瑞·申 Parry Shen
       约瑟夫·贝尔托特 Joseph Bertót
       科乔·亚仕都 Kojo Asiedu
       朴赞郁 Chan-wook Park
       李泰宪 Lee Tae-hun
       马可·贝尔崔米 Marco Beltrami
       洪坰杓 Kyung-Pyo Hong
       韩美妍 Meeyeon Han
       金昌洙 Chang-ju Kim
       Ondrej Nekvasil Ondrej Nekvasil
       Catherine George Catherine George
       Beatrice Brentnerova Beatrice Brentnerova

◎标  签 科幻 / 人性 / 韩国 / 奉俊昊 / 灾难 / 韩国电影 / 剧情 / 美国

◎简  介
  为了应对愈演愈烈的温室效应,世界各国在2014年发射了代号CW-7的冷冻剂,谁知却将地球推入了万劫不复的极寒深渊。大多数的人类死于寒冷与恐慌,只有为数不多的数千人登上了威尔福德工业开发的列车,成为永不停歇的流浪者。这列火车借助威尔福德(艾德·哈里斯 Ed Harris 饰)开发的永动引擎,并且配备各种完备设施,在之后的十七年里构建了属于自己的独立生态系统,周而复始旋转在43.8万公里的漫长旅途中。生活在末尾车厢的底层人民一直饱受压迫,为了争取自由和权力,他们在过去发起过多次暴动,但无疑例外均以失败告终。这一次,拥有领袖气质的柯蒂斯(克里斯·埃文斯 Chris Evans 饰)试图找到被囚禁的安保设计师南宫民秀(宋康昊 饰),借助他之手打开通往首节车厢的重重大门,推翻威尔福德的统治。新年伊始,一场血腥革命正在进行……                                       
                                    本片根据根据法国漫画《Le Tra...
  1. ##### MediaInfo ######
  2. General
  3. Unique ID                                : 193333183036356869011431673665160422504 (0x91729DDC78184B39B643C3D879332468)
  4. Complete name                            : Snowpiercer.2013.KOR.BluRay.1080p.x265.10bit.2Audio-MiniHD.mkv
  5. Format                                   : Matroska
  6. Format version                           : Version 4
  7. File size                                : 6.40 GiB
  8. Duration                                 : 2 h 5 min
  9. Overall bit rate                         : 7 276 kb/s
  10. Encoded date                             : UTC 2018-01-09 06:18:04
  11. Writing application                      : mkvmerge v18.0.0 ('Apricity') 64-bit
  12. Writing library                          : libebml v1.3.5 + libmatroska v1.4.8
  13. Video
  14. ID                                       : 1
  15. Format                                   : HEVC
  16. Format/Info                              : High Efficiency Video Coding
  17. Format profile                           : Main 10@L4@Main
  18. Codec ID                                 : V_MPEGH/ISO/HEVC
  19. Duration                                 : 2 h 5 min
  20. Bit rate                                 : 5 864 kb/s
  21. Width                                    : 1 920 pixels
  22. Height                                   : 1 040 pixels
  23. Display aspect ratio                     : 1.85:1
  24. Frame rate mode                          : Constant
  25. Frame rate                               : 23.976 (24000/1001/53354) FPS
  26. Color space                              : YUV
  27. Chroma subsampling                       : 4:2:0
  28. Bit depth                                : 10 bits
  29. Bits/(Pixel*Frame)                       : 0.122
  30. Stream size                              : 5.16 GiB (81%)
  31. Writing library                          : x265 2.6+14-f09f3b4a2115:[Windows][GCC 7.2.0][64 bit] 10bit
  32. Encoding settings                        : cpuid=533541173503 / frame-threads=3 / numa-pools=8 / wpp / no-pmode / no-pme / no-psnr / no-ssim / log-level=2 / input-csp=1 / input-res=1920x1040 / interlace=0 / total-frames=181122 / level-idc=0 / high-tier=1 / uhd-bd=0 / ref=5 / no-allow-non-conformance / no-repeat-headers / annexb / no-aud / no-hrd / info / hash=0 / no-temporal-layers / no-open-gop / min-keyint=1 / keyint=360 / gop-lookahead=0 / bframes=8 / b-adapt=2 / b-pyramid / bframe-bias=0 / rc-lookahead=40 / lookahead-slices=4 / NTMzNTQ=uuDQuD2mJt9fsCf / scenecut=40 / no-intra-refresh / ctu=32 / min-cu-size=8 / rect / no-amp / max-tu-size=16 / tu-inter-depth=2 / tu-intra-depth=2 / limit-tu=4 / rdoq-level=1 / dynamic-rd=0.00 / ssim-rd / signhide / no-tskip / nr-intra=0 / nr-inter=0 / no-constrained-intra / no-strong-intra-smoothing / max-merge=3 / limit-refs=2 / limit-modes / me=3 / subme=5 / merange=25 / temporal-mvp / weightp / weightb / no-analyze-src-pics / deblock=-1:-1 / no-sao / no-sao-non-deblock / rd=4 / no-early-skip / rskip / no-fast-intra / no-tskip-fast / no-cu-lossless / b-intra / no-splitrd-skip / rdpenalty=1 / psy-rd=0.00 / psy-rdoq=5.00 / no-rd-refine / analysis-reuse-mode=0 / no-lossless / cbqpoffs=-2 / crqpoffs=-2 / rc=crf / crf=19.0 / qcomp=0.65 / qpstep=4 / stats-write=0 / stats-read=0 / ipratio=1.40 / pbratio=1.30 / aq-mode=2 / aq-strength=0.80 / cutree / zone-count=0 / no-strict-cbr / qg-size=16 / no-rc-grain / qpmax=69 / qpmin=0 / no-const-vbv / sar=1 / overscan=0 / videoformat=5 / range=0 / colorprim=1 / transfer=2 / colormatrix=2 / chromaloc=0 / display-window=0 / max-cll=0,0 / min-luma=0 / max-luma=1023 / log2-max-poc-lsb=8 / vui-timing-info / vui-hrd-info / slices=1 / no-opt-qp-pps / no-opt-ref-list-length-pps / no-multi-pass-opt-rps / scenecut-bias=0.05 / no-opt-cu-delta-qp / no-aq-motion / no-hdr / no-hdr-opt / no-dhdr10-opt / analysis-reuse-level=5 / scale-factor=0 / refine-intra=0 / refine-inter=0 / refine-mv=0 / no-limit-sao / ctu-info=0 / no-lowpass-dct / refine-mv-type=0 / copy-pic=1
  33. Default                                  : Yes
  34. Forced                                   : No
  35. Color range                              : Limited
  36. Color primaries                          : BT.709
  37. Audio #1
  38. ID                                       : 2
  39. Format                                   : AC-3
  40. Format/Info                              : Audio Coding 3
  41. Commercial name                          : Dolby Digital
  42. Codec ID                                 : A_AC3
  43. Duration                                 : 2 h 5 min
  44. Bit rate mode                            : Constant
  45. Bit rate                                 : 640 kb/s
  46. Channel(s)                               : 6 channels
  47. Channel layout                           : L R C LFE Ls Rs
  48. Sampling rate                            : 48.0 kHz
  49. Frame rate                               : 31.250 FPS (1536 SPF)
  50. Compression mode                         : Lossy
  51. Stream size                              : 576 MiB (9%)
  52. Title                                    : 英语
  53. Language                                 : English
  54. Service kind                             : Complete Main
  55. Default                                  : Yes
  56. Forced                                   : No
  57. Audio #2
  58. ID                                       : 3
  59. Format                                   : AC-3
  60. Format/Info                              : Audio Coding 3
  61. Commercial name                          : Dolby Digital
  62. Codec ID                                 : A_AC3
  63. Duration                                 : 2 h 5 min
  64. Bit rate mode                            : Constant
  65. Bit rate                                 : 640 kb/s
  66. Channel(s)                               : 6 channels
  67. Channel layout                           : L R C LFE Ls Rs
  68. Sampling rate                            : 48.0 kHz
  69. Frame rate                               : 31.250 FPS (1536 SPF)
  70. Compression mode                         : Lossy
  71. Stream size                              : 576 MiB (9%)
  72. Title                                    : 国语
  73. Language                                 : Chinese
  74. Service kind                             : Complete Main
  75. Default                                  : No
  76. Forced                                   : No
  77. Text #1
  78. ID                                       : 4
  79. Format                                   : PGS
  80. Muxing mode                              : zlib
  81. Codec ID                                 : S_HDMV/PGS
  82. Codec ID/Info                            : Picture based subtitle format used on BDs/HD-DVDs
  83. Duration                                 : 1 h 56 min
  84. Bit rate                                 : 26.6 kb/s
  85. Count of elements                        : 1962
  86. Stream size                              : 22.1 MiB (0%)
  87. Title                                    : 英文
  88. Language                                 : English
  89. Default                                  : Yes
  90. Forced                                   : No
  91. Text #2
  92. ID                                       : 5
  93. Format                                   : PGS
  94. Muxing mode                              : zlib
  95. Codec ID                                 : S_HDMV/PGS
  96. Codec ID/Info                            : Picture based subtitle format used on BDs/HD-DVDs
  97. Duration                                 : 2 h 2 min
  98. Bit rate                                 : 45.8 kb/s
  99. Count of elements                        : 5056
  100. Stream size                              : 40.0 MiB (1%)
  101. Title                                    : 简体
  102. Language                                 : Chinese
  103. Default                                  : No
  104. Forced                                   : No
  105. Text #3
  106. ID                                       : 6
  107. Format                                   : PGS
  108. Muxing mode                              : zlib
  109. Codec ID                                 : S_HDMV/PGS
  110. Codec ID/Info                            : Picture based subtitle format used on BDs/HD-DVDs
  111. Duration                                 : 2 h 2 min
  112. Bit rate                                 : 48.9 kb/s
  113. Count of elements                        : 5056
  114. Stream size                              : 42.7 MiB (1%)
  115. Title                                    : 繁体
  116. Language                                 : Chinese
  117. Default                                  : No
  118. Forced                                   : No
  119. Text #4
  120. ID                                       : 7
  121. Format                                   : PGS
  122. Muxing mode                              : zlib
  123. Codec ID                                 : S_HDMV/PGS
  124. Codec ID/Info                            : Picture based subtitle format used on BDs/HD-DVDs
  125. Duration                                 : 2 h 2 min
  126. Bit rate                                 : 68.4 kb/s
  127. Count of elements                        : 5051
  128. Stream size                              : 59.8 MiB (1%)
  129. Title                                    : 简英
  130. Language                                 : Chinese
  131. Default                                  : No
  132. Forced                                   : No
  133. Text #5
  134. ID                                       : 8
  135. Format                                   : PGS
  136. Muxing mode                              : zlib
  137. Codec ID                                 : S_HDMV/PGS
  138. Codec ID/Info                            : Picture based subtitle format used on BDs/HD-DVDs
  139. Duration                                 : 2 h 2 min
  140. Bit rate                                 : 69.7 kb/s
  141. Count of elements                        : 5051
  142. Stream size                              : 61.0 MiB (1%)
  143. Title                                    : 繁英
  144. Language                                 : Chinese
  145. Default                                  : No
  146. Forced                                   : No
  147. Menu
  148. 00:00:00.000                             : en:Chapter 01
  149. 00:03:40.637                             : en:Chapter 02
  150. 00:08:46.859                             : en:Chapter 03
  151. 00:16:09.718                             : en:Chapter 04
  152. 00:21:25.534                             : en:Chapter 05
  153. 00:29:13.877                             : en:Chapter 06
  154. 00:34:51.547                             : en:Chapter 07
  155. 00:41:14.054                             : en:Chapter 08
  156. 00:47:52.369                             : en:Chapter 09
  157. 00:56:42.565                             : en:Chapter 10
  158. 01:02:44.719                             : en:Chapter 11
  159. 01:15:16.553                             : en:Chapter 12
  160. 01:23:46.604                             : en:Chapter 13
  161. 01:33:06.789                             : en:Chapter 14
  162. 01:36:35.706                             : en:Chapter 15
  163. 01:44:36.144                             : en:Chapter 16
  164. 01:50:34.419                             : en:Chapter 17
  165. 01:56:58.720                             : en:Chapter 18





此处一般会放置磁力链或种子下载链接,不过此链接需要注册会员才能看到,点击“立即注册”
磁力链下载【下载链接仅对注册会员开放,登陆后可见】
BT9527电影天堂 1、BT9527电影天堂提供的BT文件均来源于互联网抓取,只供网友学习交流、技术提升使用。
2、我们遵守BitTorrent点对点协议原则,任何版权问题请联系原资源发布商,我们不处理任何版权纠纷,谢谢!如有争议请联系邮箱:BT9527#hotmail.com(#换成@)
3、如果您发现某页面或地址有错误,请联系站长邮箱BT9527#hotmail.com(#换成@),我们会尽快处理。您的热心是对BT9527电影天堂最大的支持。
4、本站建议去正规影院观看电影以支持电影行业发展。
最新回复 (0)

你可以在 登录 or 注册 后,对此帖发表评论!

返回
发新帖