银魂[国日多音轨/简繁字幕].Gintama.2017.1080p.BluRay.HEVC.10bit-MiniHD 3.37GB

版主小s 1月前 137

✔资源类型:暂未分类   ✔电影年份:2017   ✔电影地区:日本   ✔电影分类:喜剧

◎标  题 银魂
◎译  名 银魂 真人版 / Gintama
◎片  名 銀魂
◎年  代 2017
◎产  地 日本
◎类  别 喜剧 / 动作 / 奇幻 / 冒险
◎语  言 日语
◎上映日期 2017-09-01(中国大陆) / 2017-07-14(日本)
◎IMDb评分 6.1/10 (2349人评价)
◎IMDb链接 https://www.imdb.com/title/tt5805470/
◎豆瓣评分 6.9/10 (120278人评价)
◎豆瓣链接 https://movie.douban.com/subject/26816086/
◎片  长 130分钟
◎导  演 福田雄一 Yûichi Fukuda
◎编  剧 福田雄一 Yûichi Fukuda
       空知英秋 Hideaki Sorachi
◎演  员 小栗旬 Shun Oguri
       菅田将晖 Masaki Suda
       桥本环奈 Kanna Hashimoto
       柳乐优弥 Yûya Yagira
       新井浩文 Hirofumi Arai
       吉泽亮 Yoshizawa Ryo
       早见明里 Akari Hayami
       室毅 Tsuyoshi Muro
       长泽雅美 Masami Nagasawa
       冈田将生 Masaki Okada
       佐藤二朗 Jirô Satô
       菜菜绪 Nanao
       安田显 Ken Yasuda
       中村勘九郎 Kantarou Nakamura
       堂本刚 Tsuyoshi Dômoto
       山田孝之 Yamada Takayuki
       山寺宏一 Kôichi Yamadera
       夏木真理 Mari Natsuki
       山口智充 Tomomitsu Yamaguchi
       濑川英史 Eishi Segawa
       小林真吾 Shingo Kobayashi

◎标  签 日本 / 漫改 / 漫画改编 / 搞笑 / 真人化 / 喜剧 / 2017 / 热血

◎简  介
  这是一个外星人和地球人混居的时代,在外星移民的压迫和统治下,流传百年的武士道精神已然没落,然而,在一片倾颓之势面前,依然有一群人默默的遵守着他们的准则和正义。家道中落的青年志村新八(菅田将晖 饰)在一场意外中结识了万事屋老板坂田银时(小栗旬 饰)和天人少女神乐(桥本环奈 饰),三人成为好友。他们共同的朋友桂小太郎(冈田将生 饰)无故失踪,经过调查,一个名叫冈田似藏(新井浩文 饰)的男人和一把名为“红缨”的妖刀浮出水面。                                    
                                冈田似藏是曾经的攘夷志士高杉晋助(堂本刚 饰)的手下,高杉恨透了这个堕落的世界,一直都企图将它破坏殆尽。随着红缨的力量越来越强大,整个大江户被笼罩在越来越浓重的阴云之下。
  1. ##### MediaInfo ######
  2. General
  3. Unique ID                                : 76966710342927465834179755059806303615 (0x39E73FCCB0263121EAA671F869BD757F)
  4. Complete name                            : 银魂.Gintama.2017.1080p.BluRay.HEVC.10bit-MiniHD.mkv
  5. Format                                   : Matroska
  6. Format version                           : Version 4
  7. File size                                : 3.36 GiB
  8. Duration                                 : 2 h 11 min
  9. Overall bit rate                         : 3 674 kb/s
  10. Encoded date                             : UTC 2018-01-15 10:52:20
  11. Writing application                      : mkvmerge v19.0.0 ('Brave Captain') 64-bit
  12. Writing library                          : libebml v1.3.5 + libmatroska v1.4.8
  13. Cover                                    : Yes
  14. Attachments                              : cover.jpg
  15. Video
  16. ID                                       : 1
  17. Format                                   : HEVC
  18. Format/Info                              : High Efficiency Video Coding
  19. Format profile                           : Main 10@L4@High
  20. Codec ID                                 : V_MPEGH/ISO/HEVC
  21. Duration                                 : 2 h 11 min
  22. Bit rate                                 : 3 172 kb/s
  23. Width                                    : 1 920 pixels
  24. Height                                   : 1 080 pixels
  25. Display aspect ratio                     : 16:9
  26. Frame rate mode                          : Constant
  27. Frame rate                               : 23.976 (24000/1001/53354) FPS
  28. Color space                              : YUV
  29. Chroma subsampling                       : 4:2:0
  30. Bit depth                                : 10 bits
  31. Bits/(Pixel*Frame)                       : 0.064
  32. Stream size                              : 2.90 GiB (86%)
  33. Writing library                          : x265 2.6+27-2f3c4158cf35:[Windows][MSVC 1912][64 bit] 10bit
  34. Encoding settings                        : cpuid=533541173503 / frame-threads=4 / numa-pools=16 / wpp / no-pmode / no-pme / no-psnr / no-ssim / log-level=2 / input-csp=1 / input-res=1920x1080 / interlace=0 / total-frames=0 / level-idc=0 / high-tier=1 / uhd-bd=0 / ref=4 / no-allow-non-conformance / no-repeat-headers / annexb / no-aud / no-hrd / info / hash=0 / no-temporal-layers / no-open-gop / min-keyint=1 / keyint=600 / gop-lookahead=0 / bframes=4 / b-adapt=2 / b-pyramid / bframe-bias=0 / rc-lookahead=25 / lookahead-slices=4 / NTMzNTQ=uuDQuD2mJt9fsCf / scenecut=40 / radl=0 / no-intra-refresh / ctu=64 / min-cu-size=8 / no-rect / no-amp / max-tu-size=32 / tu-inter-depth=1 / tu-intra-depth=1 / limit-tu=0 / rdoq-level=1 / dynamic-rd=0.00 / no-ssim-rd / signhide / no-tskip / nr-intra=0 / nr-inter=0 / no-constrained-intra / strong-intra-smoothing / max-merge=3 / limit-refs=3 / limit-modes / me=3 / subme=3 / merange=44 / temporal-mvp / weightp / weightb / no-analyze-src-pics / deblock=0:0 / no-sao / no-sao-non-deblock / rd=4 / no-early-skip / rskip / no-fast-intra / no-tskip-fast / no-cu-lossless / no-b-intra / no-splitrd-skip / rdpenalty=0 / psy-rd=1.80 / psy-rdoq=0.00 / no-rd-refine / no-lossless / cbqpoffs=0 / crqpoffs=0 / rc=crf / crf=22.0 / qcomp=0.65 / qpstep=4 / stats-write=0 / stats-read=0 / vbv-maxrate=27000 / vbv-bufsize=27000 / vbv-init=0.9 / crf-max=0.0 / crf-min=0.0 / ipratio=1.40 / pbratio=1.30 / aq-mode=3 / aq-strength=0.80 / cutree / zone-count=0 / no-strict-cbr / qg-size=32 / no-rc-grain / qpmax=36 / qpmin=0 / no-const-vbv / sar=0 / overscan=0 / videoformat=5 / range=0 / colorprim=1 / transfer=2 / colormatrix=2 / chromaloc=0 / display-window=0 / max-cll=0,0 / min-luma=0 / max-luma=1023 / log2-max-poc-lsb=8 / vui-timing-info / vui-hrd-info / slices=1 / no-opt-qp-pps / no-opt-ref-list-length-pps / no-multi-pass-opt-rps / scenecut-bias=0.05 / no-opt-cu-delta-qp / no-aq-motion / no-hdr / no-hdr-opt / no-dhdr10-opt / analysis-save=(null) / analysis-load=(null) / analysis-reuse-level=5 / scale-factor=0 / refine-intra=0 / refine-inter=0 / refine-mv=0 / no-limit-sao / ctu-info=0 / no-lowpass-dct / refine-mv-type=0 / copy-pic=1
  35. Language                                 : Japanese
  36. Default                                  : Yes
  37. Forced                                   : No
  38. Color range                              : Limited
  39. Color primaries                          : BT.709
  40. Audio #1
  41. ID                                       : 2
  42. Format                                   : Opus
  43. Codec ID                                 : A_OPUS
  44. Duration                                 : 2 h 11 min
  45. Bit rate                                 : 307 kb/s
  46. Channel(s)                               : 6 channels
  47. Channel layout                           : L R C Ls Rs Cb LFE
  48. Sampling rate                            : 48.0 kHz
  49. Frame rate                               : 50.000 FPS (960 SPF)
  50. Compression mode                         : Lossy
  51. Delay relative to video                  : 2 ms
  52. Stream size                              : 288 MiB (8%)
  53. Language                                 : Japanese
  54. Default                                  : Yes
  55. Forced                                   : No
  56. Audio #2
  57. ID                                       : 3
  58. Format                                   : AC-3
  59. Format/Info                              : Audio Coding 3
  60. Commercial name                          : Dolby Digital
  61. Codec ID                                 : A_AC3
  62. Duration                                 : 2 h 11 min
  63. Bit rate mode                            : Constant
  64. Bit rate                                 : 192 kb/s
  65. Channel(s)                               : 2 channels
  66. Channel layout                           : L R
  67. Sampling rate                            : 48.0 kHz
  68. Frame rate                               : 31.250 FPS (1536 SPF)
  69. Compression mode                         : Lossy
  70. Stream size                              : 180 MiB (5%)
  71. Language                                 : Chinese
  72. Service kind                             : Complete Main
  73. Default                                  : No
  74. Forced                                   : No
  75. Text #1
  76. ID                                       : 4
  77. Format                                   : UTF-8
  78. Codec ID                                 : S_TEXT/UTF8
  79. Codec ID/Info                            : UTF-8 Plain Text
  80. Duration                                 : 2 h 10 min
  81. Bit rate                                 : 43 b/s
  82. Count of elements                        : 1606
  83. Stream size                              : 41.8 KiB (0%)
  84. Title                                    : Simplified
  85. Language                                 : Chinese
  86. Default                                  : Yes
  87. Forced                                   : No
  88. Text #2
  89. ID                                       : 5
  90. Format                                   : UTF-8
  91. Codec ID                                 : S_TEXT/UTF8
  92. Codec ID/Info                            : UTF-8 Plain Text
  93. Duration                                 : 2 h 10 min
  94. Bit rate                                 : 43 b/s
  95. Count of elements                        : 1606
  96. Stream size                              : 41.8 KiB (0%)
  97. Title                                    : Traditional
  98. Language                                 : Chinese
  99. Default                                  : No
  100. Forced                                   : No
  101. Menu
  102. 00:00:00.000                             : en:Chapter 1
  103. 00:07:18.438                             : en:Chapter 2
  104. 00:16:48.382                             : en:Chapter 3
  105. 00:31:36.019                             : en:Chapter 4
  106. 00:48:20.814                             : en:Chapter 5
  107. 01:01:22.220                             : en:Chapter 6
  108. 01:16:01.306                             : en:Chapter 7
  109. 01:26:11.124                             : en:Chapter 8
  110. 01:39:56.573                             : en:Chapter 9
  111. 01:46:37.015                             : en:Chapter 10
  112. 01:58:07.580                             : en:Chapter 11
  113. 02:06:48.809                             : en:Chapter 12



此处一般会放置磁力链或种子下载链接,不过此链接需要注册会员才能看到,点击“立即注册”
磁力链下载【下载链接仅对注册会员开放,登陆后可见】
BT9527电影天堂 1、BT9527电影天堂提供的BT文件均来源于互联网抓取,只供网友学习交流、技术提升使用。
2、我们遵守BitTorrent点对点协议原则,任何版权问题请联系原资源发布商,我们不处理任何版权纠纷,谢谢!如有争议请联系邮箱:BT9527#hotmail.com(#换成@)
3、如果您发现某页面或地址有错误,请联系站长邮箱BT9527#hotmail.com(#换成@),我们会尽快处理。您的热心是对BT9527电影天堂最大的支持。
4、本站建议去正规影院观看电影以支持电影行业发展。
最新回复 (0)

你可以在 登录 or 注册 后,对此帖发表评论!

返回
发新帖