神奇动物:邓布利多之谜[中文字幕].2022.2160p.UHD.BluRay.x265.10bit.HDR.TrueHD.7.1.Atmos-SURCODE 22.76GB

版主小s 1月前 91

神奇动物:邓布利多之谜[中文字幕].Fantastic.Beasts.The.Secrets.of.Dumbledore.2022.2160p.UHD.BluRay.x265.10bit.HDR.TrueHD.7.1.Atmos-SURCODE 22.76GB

◎译 名 神奇动物:邓布利多之谜 / 神奇动物在哪里3:邓布利多之谜 / 神奇生物在哪里3 / 怪兽与邓不利多的秘密(港 / 台)

◎片 名 Fantastic Beasts: The Secrets of Dumbledore

◎年 代 2022

◎产 地 英国 / 美国

◎类 别 奇幻 / 冒险

◎语 言 英语 / 德语

◎上映日期 2022-04-08(英国/中国大陆) / 2022-04-15(美国)

◎IMDb链接 https://www.imdb.com/title/tt4123432/

◎豆瓣评分 5.9/10 (150327人评价)

◎豆瓣链接 https://movie.douban.com/subject/26147418/

◎片 长 142分钟

◎导 演 大卫·叶茨 David Yates (id:1275147)

◎编 剧 J. K. 罗琳 J. K. Rowling (id:1022772)

史蒂夫·克洛夫斯 Steve Kloves (id:1107737)

◎演 员 埃迪·雷德梅恩 Eddie Redmayne (id:1010503)

裘德·洛 Jude Law (id:1010510)

麦斯·米科尔森 Mads Mikkelsen (id:1040529)

丹·福勒 Dan Fogler (id:1027317)

艾莉森·萨多尔 Alison Sudol (id:1350625)

凯瑟琳·沃特斯顿 Katherine Waterston (id:1316589)

埃兹拉·米勒 Ezra Miller (id:1313037)

卡勒姆·特纳 Callum Turner (id:1328007)

杰西卡·威廉姆斯 Jessica Williams (id:1189267)

理查德·柯伊尔 Richard Coyle (id:1031846)

波佩·科比-特曲 Poppy Corby-Tuech (id:1337282)

维多利亚·耶茨 Victoria Yeates (id:1397745)

威廉·纳迪兰 William Nadylam (id:1361420)

奥利弗·马苏奇 Oliver Masucci (id:1356578)

瓦莱丽·帕赫纳 Valerie Pachner (id:1376990)

亚历山大·库兹涅佐夫 Aleksandr Kuznetsov (id:1400621)

拉莫娜·库泽-莉比诺 Ramona Kunze-Libnow (id:1371863)

马丽娅·费尔南达·康基多 Maria Fernanda Candido (id:1069306)

戴夫·王 Dave Wong (id:1468526)

维尔夫·斯科尔丁 Wilf Scolding (id:1422221)

卢卡斯·英格兰德 Lucas Englander (id:1420361)

菲奥娜·格拉斯科特 Fiona Glascott (id:1094753)

马提亚斯·布伦纳 Matthias Brenner (id:1068895)

彼得·西蒙尼舍克 Peter Simonischek (id:1155835)

雅基·波特斯万 Jacqui Boatswain (id:1278852)

赫柏·贝尔德索尔 Hebe Beardsall (id:1315461)

曼努埃尔·克莱因 Manuel Klein (id:1107683)

凯文·格思里 Kevin Guthrie (id:1335226)

詹姆斯·纽顿·霍华德 James Newton Howard (id:1019135)

乔治·瑞奇蒙 George Richmond (id:1434359)

柯琳·阿特伍德 Colleen Atwood (id:1277560)

◎简 介

阿不思·邓布利多教授(裘德·洛 饰)意识到强大的黑巫师盖勒特·格林德沃(麦斯·米科尔森 饰)正试图夺取魔法世界的控制权。邓布利多了解仅凭他一人之力,将无法阻止格林德沃,于是他委托魔法动物学家纽特·斯卡曼德(埃迪·雷德梅恩 饰)带领一支精良的团队——成员包括男巫、女巫及一位勇敢的麻瓜面包师,来共同执行这项危险任务。一路上他们会遇到各式各样的神奇动物,既有老朋友,也有前所未见的神秘生物;同时他们也随时会与格林德沃不断壮大的追随者发生冲突。这次行动的风险是如此之高……邓布利多还能袖手旁观多久?

  1. Video

  2. ID : 1

  3. Format : HEVC

  4. Format/Info : High Efficiency Video Coding

  5. Format profile : Main 10@L5.1@High

  6. HDR format : SMPTE ST 2086, HDR10 compatible

  7. Codec ID : V_MPEGH/ISO/HEVC

  8. Duration : 2 h 22 min

  9. Bit rate : 19.1 Mb/s

  10. Width : 3 840 pixels

  11. Height : 1 608 pixels

  12. Display aspect ratio : 2.40:1

  13. Frame rate mode : Constant

  14. Frame rate : 23.976 (24000/1001/53354) FPS

  15. Color space : YUV

  16. Chroma subsampling : 4:2:0 (Type 2)

  17. Bit depth : 10 bits

  18. Bits/(Pixel*Frame) : 0.129

  19. Stream size : 19.0 GiB (84%)

  20. Writing library : x265 3.5+36-9b59d4554:[Windows][MSVC 1900][64 bit] 10bit

  21. Encoding settings : cpuid=533541111039 / frame-threads=5 / numa-pools=32 / wpp / no-pmode / no-pme / no-psnr / no-ssim / log-level=2 / input-csp=1 / input-res=3840x1608 / interlace=0 / total-frames=205246 / level-idc=51 / high-tier=1 / uhd-bd=0 / ref=4 / no-allow-non-conformance / repeat-headers / annexb / aud / no-eob / no-eos / hrd / info / hash=0 / no-temporal-layers / no-open-gop / min-keyint=23 / keyint=250 / gop-lookahead=0 / bframes=4 / b-adapt=2 / b-pyramid / bframe-bias=0 / rc-lookahead=25 / lookahead-slices=4 / NTMzNTQ=uuDQuD2mJt9fsCf / scenecut=40 / no-hist-scenecut / radl=0 / no-splice / no-intra-refresh / ctu=64 / min-cu-size=8 / rect / no-amp / max-tu-size=32 / tu-inter-depth=1 / tu-intra-depth=1 / limit-tu=0 / rdoq-level=2 / dynamic-rd=0.00 / no-ssim-rd / signhide / no-tskip / nr-intra=0 / nr-inter=0 / no-constrained-intra / no-strong-intra-smoothing / max-merge=3 / limit-refs=3 / limit-modes / me=3 / subme=3 / merange=57 / temporal-mvp / no-frame-dup / no-hme / weightp / no-weightb / no-analyze-src-pics / deblock=-3:-3 / no-sao / no-sao-non-deblock / rd=4 / selective-sao=0 / no-early-skip / rskip / no-fast-intra / no-tskip-fast / no-cu-lossless / no-b-intra / no-splitrd-skip / rdpenalty=0 / psy-rd=2.00 / psy-rdoq=1.00 / no-rd-refine / no-lossless / cbqpoffs=0 / crqpoffs=0 / rc=crf / crf=9.0 / qcomp=0.60 / qpstep=4 / stats-write=0 / stats-read=0 / vbv-maxrate=160000 / vbv-bufsize=160000 / vbv-init=0.9 / min-vbv-fullness=50.0 / max-vbv-fullness=80.0 / crf-max=0.0 / crf-min=0.0 / ipratio=1.40 / pbratio=1.30 / aq-mode=2 / aq-strength=1.00 / cutree / zone-count=0 / no-strict-cbr / qg-size=32 / no-rc-grain / qpmax=69 / qpmin=0 / no-const-vbv / sar=1 / overscan=0 / videoformat=5 / range=0 / colorprim=9 / transfer=16 / colormatrix=9 / chromaloc=1 / chromaloc-top=2 / chromaloc-bottom=2 / display-window=0 / master-display=G(13250,34500)B(7500,3000)R(34000,16000)WP(15635,16450)L(10000000,01) / cll=500,54 / min-luma=0 / max-luma=1023 / log2-max-poc-lsb=8 / vui-timing-info / vui-hrd-info / slices=1 / no-opt-qp-pps / no-opt-ref-list-length-pps / no-multi-pass-opt-rps / scenecut-bias=0.05 / hist-threshold=0.03 / no-opt-cu-delta-qp / no-aq-motion / hdr10 / hdr10-opt / no-dhdr10-opt / no-idr-recovery-sei / analysis-reuse-level=0 / analysis-save-reuse-level=0 / analysis-load-reuse-level=0 / scale-factor=0 / refine-intra=0 / refine-inter=0 / refine-mv=1 / refine-ctu-distortion=0 / no-limit-sao / ctu-info=0 / no-lowpass-dct / refine-analysis-type=0 / copy-pic=1 / max-ausize-factor=1.0 / no-dynamic-refine / no-single-sei / no-hevc-aq / no-svt / no-field / qp-adaptation-range=1.00 / scenecut-aware-qp=0conformance-window-offsets / right=0 / bottom=0 / NTMzNTQ= / decoder-max-rate=0 / no-vbv-live-multi-pass

  22. Default : Yes

  23. Forced : No

  24. Color range : Limited

  25. Color primaries : BT.2020

  26. Transfer characteristics : PQ

  27. Matrix coefficients : BT.2020 non-constant

  28. Mastering display color primaries : Display P3

  29. Mastering display luminance : min: 0.0001 cd/m2, max: 1000 cd/m2

  30. Maximum Content Light Level : 500 cd/m2

  31. Maximum Frame-Average Light Level : 54 cd/m2


  32. Audio #1

  33. ID : 2

  34. ID in the original source medium : 4352 (0x1100)

  35. Format : MLP FBA 16-ch

  36. Format/Info : Meridian Lossless Packing FBA with 16-channel presentation

  37. Commercial name : Dolby TrueHD with Dolby Atmos

  38. Codec ID : A_TRUEHD

  39. Duration : 2 h 22 min

  40. Bit rate mode : Variable

  41. Bit rate : 2 742 kb/s

  42. Maximum bit rate : 4 389 kb/s

  43. Channel(s) : 8 channels

  44. Channel layout : L R C LFE Ls Rs Lb Rb

  45. Sampling rate : 48.0 kHz

  46. Frame rate : 1 200.000 FPS (40 SPF)

  47. Compression mode : Lossless

  48. Stream size : 2.73 GiB (12%)

  49. Title : Surround 7.1

  50. Language : English

  51. Default : Yes

  52. Forced : No

  53. Original source medium : Blu-ray

  54. Number of dynamic objects : 11

  55. Bed channel count : 1 channel

  56. Bed channel configuration : LFE


  57. Audio #2

  58. ID : 3

  59. ID in the original source medium : 4352 (0x1100)

  60. Format : AC-3

  61. Format/Info : Audio Coding 3

  62. Commercial name : Dolby Digital

  63. Format settings : Dolby Surround EX

  64. Codec ID : A_AC3

  65. Duration : 2 h 22 min

  66. Bit rate mode : Constant

  67. Bit rate : 448 kb/s

  68. Channel(s) : 6 channels

  69. Channel layout : L R C LFE Ls Rs

  70. Sampling rate : 48.0 kHz

  71. Frame rate : 31.250 FPS (1536 SPF)

  72. Compression mode : Lossy

  73. Stream size : 457 MiB (2%)

  74. Title : Surround 5.1

  75. Language : English

  76. Service kind : Complete Main

  77. Default : No

  78. Forced : No

  79. Original source medium : Blu-ray


  80. Audio #3

  81. ID : 4

  82. Format : AAC LC

  83. Format/Info : Advanced Audio Codec Low Complexity

  84. Codec ID : A_AAC-2

  85. Duration : 2 h 22 min

  86. Bit rate : 111 kb/s

  87. Channel(s) : 2 channels

  88. Channel layout : L R

  89. Sampling rate : 48.0 kHz

  90. Frame rate : 46.875 FPS (1024 SPF)

  91. Compression mode : Lossy

  92. Delay relative to video : 9 ms

  93. Stream size : 114 MiB (0%)

  94. Title : commentary

  95. Language : English

  96. Default : No

  97. Forced : No


  98. Audio #4

  99. ID : 5

  100. Format : AAC LC

  101. Format/Info : Advanced Audio Codec Low Complexity

  102. Codec ID : A_AAC-2

  103. Duration : 2 h 22 min

  104. Bit rate : 111 kb/s

  105. Channel(s) : 2 channels

  106. Channel layout : L R

  107. Sampling rate : 48.0 kHz

  108. Frame rate : 46.875 FPS (1024 SPF)

  109. Compression mode : Lossy

  110. Delay relative to video : 9 ms

  111. Stream size : 114 MiB (0%)

  112. Title : commentary

  113. Language : English

  114. Default : No

  115. Forced : No


  116. Text #1

  117. ID : 6

  118. ID in the original source medium : 4768 (0x12A0)

  119. Format : PGS

  120. Muxing mode : zlib

  121. Codec ID : S_HDMV/PGS

  122. Codec ID/Info : Picture based subtitle format used on BDs/HD-DVDs

  123. Duration : 2 h 20 min

  124. Bit rate : 29.0 kb/s

  125. Count of elements : 3647

  126. Stream size : 29.1 MiB (0%)

  127. Language : English

  128. Default : No

  129. Forced : No

  130. Original source medium : Blu-ray


  131. Text #2

  132. ID : 7

  133. ID in the original source medium : 4769 (0x12A1)

  134. Format : PGS

  135. Muxing mode : zlib

  136. Codec ID : S_HDMV/PGS

  137. Codec ID/Info : Picture based subtitle format used on BDs/HD-DVDs

  138. Duration : 2 h 21 min

  139. Bit rate : 18.0 kb/s

  140. Count of elements : 2424

  141. Stream size : 18.3 MiB (0%)

  142. Language : French

  143. Default : No

  144. Forced : No

  145. Original source medium : Blu-ray


  146. Text #3

  147. ID : 8

  148. ID in the original source medium : 4770 (0x12A2)

  149. Format : PGS

  150. Muxing mode : zlib

  151. Codec ID : S_HDMV/PGS

  152. Codec ID/Info : Picture based subtitle format used on BDs/HD-DVDs

  153. Duration : 2 h 17 min

  154. Bit rate : 32.2 kb/s

  155. Count of elements : 3184

  156. Stream size : 31.7 MiB (0%)

  157. Language : German

  158. Default : No

  159. Forced : No

  160. Original source medium : Blu-ray


  161. Text #4

  162. ID : 9

  163. ID in the original source medium : 4771 (0x12A3)

  164. Format : PGS

  165. Muxing mode : zlib

  166. Codec ID : S_HDMV/PGS

  167. Codec ID/Info : Picture based subtitle format used on BDs/HD-DVDs

  168. Duration : 2 h 22 min

  169. Bit rate : 26.9 kb/s

  170. Count of elements : 3626

  171. Stream size : 27.4 MiB (0%)

  172. Language : Italian

  173. Default : No

  174. Forced : No

  175. Original source medium : Blu-ray


  176. Text #5

  177. ID : 10

  178. ID in the original source medium : 4772 (0x12A4)

  179. Format : PGS

  180. Muxing mode : zlib

  181. Codec ID : S_HDMV/PGS

  182. Codec ID/Info : Picture based subtitle format used on BDs/HD-DVDs

  183. Duration : 2 h 21 min

  184. Bit rate : 20.3 kb/s

  185. Count of elements : 2310

  186. Stream size : 20.6 MiB (0%)

  187. Language : Chinese

  188. Default : No

  189. Forced : No

  190. Original source medium : Blu-ray


  191. Text #6

  192. ID : 11

  193. ID in the original source medium : 4773 (0x12A5)

  194. Format : PGS

  195. Muxing mode : zlib

  196. Codec ID : S_HDMV/PGS

  197. Codec ID/Info : Picture based subtitle format used on BDs/HD-DVDs

  198. Duration : 2 h 21 min

  199. Bit rate : 19.8 kb/s

  200. Count of elements : 2454

  201. Stream size : 20.0 MiB (0%)

  202. Language : Chinese

  203. Default : No

  204. Forced : No

  205. Original source medium : Blu-ray


  206. Text #7

  207. ID : 12

  208. ID in the original source medium : 4774 (0x12A6)

  209. Format : PGS

  210. Muxing mode : zlib

  211. Codec ID : S_HDMV/PGS

  212. Codec ID/Info : Picture based subtitle format used on BDs/HD-DVDs

  213. Duration : 2 h 21 min

  214. Bit rate : 12.1 kb/s

  215. Count of elements : 2418

  216. Stream size : 12.2 MiB (0%)

  217. Language : Korean

  218. Default : No

  219. Forced : No

  220. Original source medium : Blu-ray


  221. Text #8

  222. ID : 13

  223. ID in the original source medium : 4775 (0x12A7)

  224. Format : PGS

  225. Muxing mode : zlib

  226. Codec ID : S_HDMV/PGS

  227. Codec ID/Info : Picture based subtitle format used on BDs/HD-DVDs

  228. Duration : 2 h 21 min

  229. Bit rate : 19.9 kb/s

  230. Count of elements : 2444

  231. Stream size : 20.2 MiB (0%)

  232. Language : Spanish

  233. Default : No

  234. Forced : No

  235. Original source medium : Blu-ray


  236. Text #9

  237. ID : 14

  238. ID in the original source medium : 4776 (0x12A8)

  239. Format : PGS

  240. Muxing mode : zlib

  241. Codec ID : S_HDMV/PGS

  242. Codec ID/Info : Picture based subtitle format used on BDs/HD-DVDs

  243. Duration : 2 h 21 min

  244. Bit rate : 18.9 kb/s

  245. Count of elements : 2046

  246. Stream size : 19.1 MiB (0%)

  247. Language : Danish

  248. Default : No

  249. Forced : No

  250. Original source medium : Blu-ray


  251. Text #10

  252. ID : 15

  253. ID in the original source medium : 4777 (0x12A9)

  254. Format : PGS

  255. Muxing mode : zlib

  256. Codec ID : S_HDMV/PGS

  257. Codec ID/Info : Picture based subtitle format used on BDs/HD-DVDs

  258. Duration : 2 h 21 min

  259. Bit rate : 19.0 kb/s

  260. Count of elements : 2472

  261. Stream size : 19.2 MiB (0%)

  262. Language : Finnish

  263. Default : No

  264. Forced : No

  265. Original source medium : Blu-ray


  266. Text #11

  267. ID : 16

  268. ID in the original source medium : 4778 (0x12AA)

  269. Format : PGS

  270. Muxing mode : zlib

  271. Codec ID : S_HDMV/PGS

  272. Codec ID/Info : Picture based subtitle format used on BDs/HD-DVDs

  273. Duration : 2 h 21 min

  274. Bit rate : 19.0 kb/s

  275. Count of elements : 1948

  276. Stream size : 19.2 MiB (0%)

  277. Language : Norwegian

  278. Default : No

  279. Forced : No

  280. Original source medium : Blu-ray


  281. Text #12

  282. ID : 17

  283. ID in the original source medium : 4779 (0x12AB)

  284. Format : PGS

  285. Muxing mode : zlib

  286. Codec ID : S_HDMV/PGS

  287. Codec ID/Info : Picture based subtitle format used on BDs/HD-DVDs

  288. Duration : 2 h 21 min

  289. Bit rate : 17.6 kb/s

  290. Count of elements : 1876

  291. Stream size : 17.8 MiB (0%)

  292. Language : Swedish

  293. Default : No

  294. Forced : No

  295. Original source medium : Blu-ray


  296. Text #13

  297. ID : 18

  298. ID in the original source medium : 4780 (0x12AC)

  299. Format : PGS

  300. Muxing mode : zlib

  301. Codec ID : S_HDMV/PGS

  302. Codec ID/Info : Picture based subtitle format used on BDs/HD-DVDs

  303. Duration : 1 h 13 min

  304. Bit rate : 198 b/s

  305. Count of elements : 10

  306. Stream size : 107 KiB (0%)

  307. Language : German

  308. Default : No

  309. Forced : No

  310. Original source medium : Blu-ray


  311. Text #14

  312. ID : 19

  313. ID in the original source medium : 4781 (0x12AD)

  314. Format : PGS

  315. Muxing mode : zlib

  316. Codec ID : S_HDMV/PGS

  317. Codec ID/Info : Picture based subtitle format used on BDs/HD-DVDs

  318. Duration : 1 h 37 min

  319. Bit rate : 404 b/s

  320. Count of elements : 32

  321. Stream size : 289 KiB (0%)

  322. Language : Italian

  323. Default : No

  324. Forced : No

  325. Original source medium : Blu-ray


  326. Text #15

  327. ID : 20

  328. ID in the original source medium : 4782 (0x12AE)

  329. Format : PGS

  330. Muxing mode : zlib

  331. Codec ID : S_HDMV/PGS

  332. Codec ID/Info : Picture based subtitle format used on BDs/HD-DVDs

  333. Duration : 1 h 10 min

  334. Bit rate : 383 b/s

  335. Count of elements : 20

  336. Stream size : 198 KiB (0%)

  337. Language : French

  338. Default : No

  339. Forced : No

  340. Original source medium : Blu-ray


  341. Text #16

  342. ID : 21

  343. ID in the original source medium : 4783 (0x12AF)

  344. Format : PGS

  345. Muxing mode : zlib

  346. Codec ID : S_HDMV/PGS

  347. Codec ID/Info : Picture based subtitle format used on BDs/HD-DVDs

  348. Duration : 1 h 46 min

  349. Bit rate : 370 b/s

  350. Count of elements : 30

  351. Stream size : 289 KiB (0%)

  352. Language : Spanish

  353. Default : No

  354. Forced : No

  355. Original source medium : Blu-ray


  356. Menu

  357. 00:00:00.000 : en:Chapter 01

  358. 00:10:32.465 : en:Chapter 02

  359. 00:21:47.597 : en:Chapter 03

  360. 00:28:14.526 : en:Chapter 04

  361. 00:37:49.600 : en:Chapter 05

  362. 00:47:41.567 : en:Chapter 06

  363. 01:00:03.141 : en:Chapter 07

  364. 01:10:51.497 : en:Chapter 08

  365. 01:18:50.600 : en:Chapter 09

  366. 01:30:10.446 : en:Chapter 10

  367. 01:39:50.234 : en:Chapter 11

  368. 01:49:31.064 : en:Chapter 12

  369. 01:56:51.087 : en:Chapter 13

  370. 02:07:18.088 : en:Chapter 14

  371. 02:13:17.990 : en:Chapter 15

复制代码

  


磁力链:
  • magnet:?xt=urn:btih:5313DB52A55128A7F41084F62725597488F64EC8
上传的附件:
BT9527电影天堂 1、BT9527电影天堂提供的BT文件均来源于互联网抓取,只供网友学习交流、技术提升使用。
2、我们遵守BitTorrent点对点协议原则,任何版权问题请联系原资源发布商,我们不处理任何版权纠纷,谢谢!如有争议请联系邮箱:BT9527#hotmail.com(#换成@)
3、如果您发现某页面或地址有错误,请联系站长邮箱BT9527#hotmail.com(#换成@),我们会尽快处理。您的热心是对BT9527电影天堂最大的支持。
4、本站建议去正规影院观看电影以支持电影行业发展。
最新回复 (0)

你可以在 登录 or 注册 后,对此帖发表评论!

返回
发新帖