感动她77次[国语音轨/中文字幕].77.Heartwarmings.2021.CHINESE.1080p.BluRay.x264.DD5.1-HANDJOB 8.03GB

版主小s 1月前 162

◎译 名 感动她77次 / 感动我77次 / 77 Heartwarmings

◎片 名 感動她77次

◎年 代 2021

◎产 地 中国香港 / 中国大陆

◎类 别 喜剧 / 爱情

◎语 言 粤语

◎上映日期 2021-05-14(中国大陆)

◎IMDb链接 https://www.imdb.com/title/tt14514234/

◎豆瓣评分 4.3/10 (12016人评价)

◎豆瓣链接 https://movie.douban.com/subject/30174091/

◎片 长 93分钟

◎导 演 邱礼涛 Herman Yau (id:1274313)

◎编 剧 李敏 Erica Li (id:1289664)

◎演 员 蔡卓妍 Charlene Choi (id:1041425)

周柏豪 Pakho Chau (id:1275779)

马里奥·毛瑞尔 Mario Maurer (id:1041011)

惠英红 Kara Wai Ying Hung (id:1016847)

郑希怡 Hei-Yi Cheng (id:1221295)

卫诗雅 Michelle Wai (id:1313357)

郑诗君 Sze-kwan Cheng (id:1322710)

纪焕博 Rock Ji (id:1321846)

卢巧音 Candy Lo (id:1028993)

雷琛瑜 Chenyu Lei (id:1354355)

陆永 Wing-kuen Luk (id:1275662)

林盛斌 Shing-Ban Lam (id:1351653)

小肥 Terence Siufay (id:1316260)

何珮瑜 Jeana Ho (id:1316213)

郑丹瑞 Lawrence Cheng (id:1017103)

李赏 Faith Lee (id:1399689)

邵音音 Yin-Yin Shaw (id:1297367)

周骢 Chung Chow (id:1316526)

罗利期 Joe Junior (id:1319195)

卢宛茵 Angelina Lo Yuen-Yan (id:1321408)

关宝慧 Emily Kwan (id:1316564)

卢觅雪 Michelle Lo (id:1340144)

张达明 Tat-Ming Cheung (id:1274433)

杨诗敏 Harriet Yeung (id:1329470)

邵仲衡 David Siu (id:1313804)

马蹄露 Celine Ma Tai-Lau (id:1318726)

陈奂仁 Hanjin Tan (id:1314649)

贾晓晨 J.J. Jia (id:1274760)

赵永洪 Raymond Chiu (id:1315541)

洪卓立 Cheuk-lap Hung (id:1275258)

许靖韵 Hui Ching Wan (id:1331093)

贝安琪 Ankie Beilke (id:1315843)

布伟杰 Brian Thomas Burrell (id:1335190)

李静仪 Heidi Lee (id:1343968)

◎简 介

都市爱情电影《感动她77次》为《原谅他77次》续集。恢复单身的Eva(蔡卓妍 饰)与泰国红星Marvel(马里奥 饰)偶遇并互有好感,而Adam (周柏豪 饰)仍希望通过努力换来Eva的第78次原谅。为完成身患绝症的母亲(惠英红 饰)心愿,Eva考虑走进婚姻。Adam能否趁机挽回真爱呢?

◎获奖情况 (共4项)

第13届澳门国际电影节 (2021)

金莲花奖 最佳故事片大奖(提名)

金莲花奖 最佳女主角(提名)

└──蔡卓妍 (id:1041425)

金莲花奖 最佳女配角(提名)

└──惠英红 (id:1016847)

金莲花奖 最佳编剧(提名)

└──李敏 (id:1289664)

  1. Video

  2. ID : 1

  3. Format : AVC

  4. Format/Info : Advanced Video Codec

  5. Format profile : High@L4.1

  6. Format settings : CABAC / 5 Ref Frames

  7. Format settings, CABAC : Yes

  8. Format settings, Reference frames : 5 frames

  9. Codec ID : V_MPEG4/ISO/AVC

  10. Duration : 1 h 33 min

  11. Bit rate : 11.6 Mb/s

  12. Width : 1 920 pixels

  13. Height : 816 pixels

  14. Display aspect ratio : 2.35:1

  15. Frame rate mode : Constant

  16. Frame rate : 24.000 FPS

  17. Color space : YUV

  18. Chroma subsampling : 4:2:0

  19. Bit depth : 8 bits

  20. Scan type : Progressive

  21. Bits/(Pixel*Frame) : 0.309

  22. Stream size : 7.59 GiB (94%)

  23. Writing library : x264 core 164 r3065 ae03d92

  24. Encoding settings : cabac=1 / ref=5 / deblock=1:-3:-3 / analyse=0x3:0x133 / me=umh / subme=10 / psy=1 / psy_rd=1.00:0.00 / mixed_ref=1 / me_range=32 / chroma_me=1 / trellis=2 / 8x8dct=1 / cqm=0 / deadzone=21,11 / fast_pskip=0 / chroma_qp_offset=-2 / threads=25 / lookahead_threads=6 / sliced_threads=0 / nr=0 / decimate=0 / interlaced=0 / NTMzNTQ= / bluray_compat=0 / constrained_intra=0 / bframes=16 / b_pyramid=2 / b_adapt=2 / b_bias=0 / direct=3 / weightb=1 / open_gop=0 / weightp=2 / keyint=240 / keyint_min=24 / NTMzNTQ=uuDQuD2mJt9fsCf / scenecut=40 / intra_refresh=0 / rc_lookahead=60 / rc=crf / mbtree=0 / crf=16.2 / qcomp=0.60 / qpmin=0 / qpmax=69 / qpstep=4 / vbv_maxrate=62500 / vbv_bufsize=78125 / crf_max=0.0 / nal_hrd=none / filler=0 / NTMzNTQ=LmsMAP37EqsCpk / ip_ratio=1.40 / pb_ratio=1.30 / aq=2:1.00

  25. Default : Yes

  26. Forced : No

  27. Color range : Limited

  28. Color primaries : BT.709

  29. Transfer characteristics : BT.709

  30. Matrix coefficients : BT.709


  31. Audio

  32. ID : 2

  33. Format : AC-3

  34. Format/Info : Audio Coding 3

  35. Commercial name : Dolby Digital

  36. Format settings : Dolby Surround EX

  37. Codec ID : A_AC3

  38. Duration : 1 h 33 min

  39. Bit rate mode : Constant

  40. Bit rate : 640 kb/s

  41. Channel(s) : 6 channels

  42. Channel layout : L R C LFE Ls Rs

  43. Sampling rate : 48.0 kHz

  44. Frame rate : 31.250 FPS (1536 SPF)

  45. Compression mode : Lossy

  46. Stream size : 428 MiB (5%)

  47. Title : Cantonese

  48. Language : Chinese

  49. Service kind : Complete Main

  50. Default : Yes

  51. Forced : No


  52. Text #1

  53. ID : 3

  54. Format : UTF-8

  55. Codec ID : S_TEXT/UTF8

  56. Codec ID/Info : UTF-8 Plain Text

  57. Duration : 1 h 29 min

  58. Bit rate : 62 b/s

  59. Count of elements : 1538

  60. Stream size : 41.1 KiB (0%)

  61. Language : English

  62. Default : Yes

  63. Forced : No


  64. Text #2

  65. ID : 4

  66. Format : PGS

  67. Muxing mode : zlib

  68. Codec ID : S_HDMV/PGS

  69. Codec ID/Info : Picture based subtitle format used on BDs/HD-DVDs

  70. Duration : 1 h 29 min

  71. Bit rate : 35.5 kb/s

  72. Count of elements : 3078

  73. Stream size : 22.6 MiB (0%)

  74. Title : Chinese Simplified

  75. Language : Chinese

  76. Default : No

  77. Forced : No


  78. Text #3

  79. ID : 5

  80. Format : PGS

  81. Muxing mode : zlib

  82. Codec ID : S_HDMV/PGS

  83. Codec ID/Info : Picture based subtitle format used on BDs/HD-DVDs

  84. Duration : 1 h 29 min

  85. Bit rate : 38.2 kb/s

  86. Count of elements : 3078

  87. Stream size : 24.3 MiB (0%)

  88. Title : Chinese Traditional

  89. Language : Chinese

  90. Default : No

  91. Forced : No


  92. Menu

  93. 00:00:00.000 : :Chapter 1

  94. 00:07:43.417 : :Chapter 2

  95. 00:17:22.417 : :Chapter 3

  96. 00:22:11.708 : :Chapter 4

  97. 00:29:25.167 : :Chapter 5

  98. 00:38:13.042 : :Chapter 6

  99. 00:45:25.875 : :Chapter 7

  100. 00:52:59.417 : :Chapter 8

  101. 01:00:28.375 : :Chapter 9

  102. 01:10:00.208 : :Chapter 10

  103. 01:17:06.375 : :Chapter 11

  104. 01:24:56.625 : :Chapter 12

复制代码

  


磁力链:
  • magnet:?xt=urn:btih:7413466257D2866FFF9D1707BF0DB9F06ECD9E31
上传的附件:
BT9527电影天堂 1、BT9527电影天堂提供的BT文件均来源于互联网抓取,只供网友学习交流、技术提升使用。
2、我们遵守BitTorrent点对点协议原则,任何版权问题请联系原资源发布商,我们不处理任何版权纠纷,谢谢!如有争议请联系邮箱:BT9527#hotmail.com(#换成@)
3、如果您发现某页面或地址有错误,请联系站长邮箱BT9527#hotmail.com(#换成@),我们会尽快处理。您的热心是对BT9527电影天堂最大的支持。
4、本站建议去正规影院观看电影以支持电影行业发展。
最新回复 (0)

你可以在 登录 or 注册 后,对此帖发表评论!

返回
发新帖