奇异博士2[IMAX满屏版][简繁英特效字幕].Doctor.Strange.2022.IMAX.1080p.WEB-DL.DDP5.1.Atmos.H264-CHDBits 7.34GB

版主小s 1月前 515

✔资源类型:WEB-1080P   ✔电影年份:2022   ✔电影地区:欧美   ✔电影分类:动作

◎标  题 奇异博士2:疯狂多元宇宙
◎译  名 奇异博士2 / 斯特兰奇博士2 / 奇异博士2:失控多重宇宙(港 / 台) / 奇异博士2: 失控多元宇宙(港) / Doctor Strange 2 / Doctor Strange: in the Multiverse of Madness
◎片  名 Doctor Strange in the Multiverse of Madness
◎年  代 2022
◎产  地 美国
◎类  别 动作 / 恐怖 / 奇幻 / 冒险
◎语  言 英语
◎上映日期 2022-05-04(中国台湾) / 2022-05-06(美国)
◎IMDb评分 7.3/10 (192714人评价)
◎IMDb链接 https://www.imdb.com/title/tt9419884/
◎豆瓣链接 https://movie.douban.com/subject/30304994/
◎片  长 126分钟
◎导  演 山姆·雷米 Sam Raimi
◎编  剧 迈克尔·沃尔德伦 Michael Waldron
       杰德·哈雷·巴特利特 Jade Halley Bartlett  
       史蒂夫·迪特寇 Steve Ditko
       斯坦·李 Stan Lee
◎演  员 本尼迪克特·康伯巴奇 Benedict Cumberbatch
       伊丽莎白·奥尔森 Elizabeth Olsen
       切瓦特·埃加福 Chiwetel Ejiofor
       本尼迪克特·王 Benedict Wong
       克索斯利尔·戈麦斯 Xochitl Gomez
       瑞秋·麦克亚当斯 Rachel McAdams
       迈克尔·斯图巴 Michael Stuhlbarg
       帕特里克·斯图尔特 Patrick Stewart
       海莉·阿特维尔 Hayley Atwell
       约翰·卡拉辛斯基 John Krasinski
       拉什纳·林奇 Lashana Lynch
       安松·蒙特 Anson Mount
       查理兹·塞隆 Charlize Theron
       希拉·阿蒂姆 Sheila Atim
       亚当·赫吉尔 Adam Hugill
       亚子·米切尔 Ako Mitchell
       杨沫沫 Momo Yeung
       丹尼尔·斯温 Daniel Swain
       多波·雷斯尼怀罗 Topo Wresniwiro
       伊登·纳森森 Eden Nathenson
       维尼·莫利 Vinny Moli
       大卫·谢 David Tse
       乔丹·亚历桑德拉 Jordan Alexandra
       迈克尔·沃尔德伦 Michael Waldron
       朱利安·希威德 Julian Hilliard
       杰特·克莱恩 Jett Klyne
       布鲁斯·坎贝尔 Bruce Campbell
       马里安·洛伦西克 Marian Lorencik
       凯文·费奇 Kevin Feige
       丹尼·艾夫曼 Danny Elfman
       格雷厄姆·丘彻亚德 Graham Churchyard

◎简  介
  充满无限未知的疯狂多元宇宙即将展开,一切皆有可能。
  1. ##### MediaInfo ######
  2. General
  3. Unique ID                                : 293183337926284976176170246081656993115 (0xDC910E95A2CDB798130E7A8EA851355B)
  4. Complete name                            : Doctor.Strange.in.the.Multiverse.of.Madness.2022.V1.IMAX.1080p.WEB-DL.DDP5.1.Atmos.H264-CHDBits.mkv
  5. Format                                   : Matroska
  6. Format version                           : Version 4
  7. File size                                : 7.34 GiB
  8. Duration                                 : 2 h 6 min
  9. Overall bit rate mode                    : Variable
  10. Overall bit rate                         : 8 306 kb/s
  11. Encoded date                             : UTC 2022-06-22 14:48:23
  12. Writing application                      : mkvmerge v64.0.0 ('Willows') 64-bit
  13. Writing library                          : libebml v1.4.2 + libmatroska v1.6.4
  14. Video
  15. ID                                       : 1
  16. Format                                   : AVC
  17. Format/Info                              : Advanced Video Codec
  18. Format profile                           : High@L4
  19. Format settings                          : CABAC / 4 Ref Frames
  20. Format settings, CABAC                   : Yes
  21. Format settings, Reference frames        : 4 frames
  22. Codec ID                                 : V_MPEG4/ISO/AVC
  23. Duration                                 : 2 h 6 min
  24. Bit rate mode                            : Variable
  25. Bit rate                                 : 7 488 kb/s
  26. Maximum bit rate                         : 12.7 Mb/s
  27. Width                                    : 1 920 pixels
  28. Height                                   : 1 080 pixels
  29. Display aspect ratio                     : 16:9
  30. Frame rate mode                          : Constant
  31. Frame rate                               : 23.976 (24000/1001/53354) FPS
  32. Color space                              : YUV
  33. Chroma subsampling                       : 4:2:0
  34. Bit depth                                : 8 bits
  35. Scan type                                : Progressive
  36. Bits/(Pixel*Frame)                       : 0.151
  37. Stream size                              : 6.62 GiB (90%)
  38. Language                                 : English
  39. Default                                  : Yes
  40. Forced                                   : No
  41. Color range                              : Limited
  42. Color primaries                          : BT.709
  43. Transfer characteristics                 : BT.709
  44. Matrix coefficients                      : BT.709
  45. Audio
  46. ID                                       : 2
  47. Format                                   : E-AC-3 JOC
  48. Format/Info                              : Enhanced AC-3 with Joint Object Coding
  49. Commercial name                          : Dolby Digital Plus with Dolby Atmos
  50. Codec ID                                 : A_EAC3
  51. Duration                                 : 2 h 6 min
  52. Bit rate mode                            : Constant
  53. Bit rate                                 : 768 kb/s
  54. Channel(s)                               : 6 channels
  55. Channel layout                           : L R C LFE Ls Rs
  56. Sampling rate                            : 48.0 kHz
  57. Frame rate                               : 31.250 FPS (1536 SPF)
  58. Compression mode                         : Lossy
  59. Stream size                              : 695 MiB (9%)
  60. Language                                 : English
  61. Service kind                             : Complete Main
  62. Default                                  : Yes
  63. Forced                                   : No
  64. Complexity index                         : 16
  65. Number of dynamic objects                : 15
  66. Bed channel count                        : 1 channel
  67. Bed channel configuration                : LFE
  68. Text #1
  69. ID                                       : 3
  70. Format                                   : PGS
  71. Muxing mode                              : zlib
  72. Codec ID                                 : S_HDMV/PGS
  73. Codec ID/Info                            : Picture based subtitle format used on BDs/HD-DVDs
  74. Duration                                 : 2 h 5 min
  75. Bit rate                                 : 46.8 kb/s
  76. Count of elements                        : 3584
  77. Stream size                              : 42.1 MiB (1%)
  78. Title                                    : 中英特效.by.AQLJ
  79. Language                                 : Chinese
  80. Default                                  : Yes
  81. Forced                                   : Yes
  82. Text #2
  83. ID                                       : 4
  84. Format                                   : PGS
  85. Muxing mode                              : zlib
  86. Codec ID                                 : S_HDMV/PGS
  87. Codec ID/Info                            : Picture based subtitle format used on BDs/HD-DVDs
  88. Duration                                 : 2 h 5 min
  89. Bit rate                                 : 34.4 kb/s
  90. Count of elements                        : 3584
  91. Stream size                              : 31.0 MiB (0%)
  92. Title                                    : 简中特效.by.AQLJ
  93. Language                                 : Chinese
  94. Default                                  : No
  95. Forced                                   : No
  96. Text #3
  97. ID                                       : 5
  98. Format                                   : UTF-8
  99. Codec ID                                 : S_TEXT/UTF8
  100. Codec ID/Info                            : UTF-8 Plain Text
  101. Duration                                 : 25 min 8 s
  102. Bit rate                                 : 1 b/s
  103. Count of elements                        : 10
  104. Stream size                              : 265 Bytes (0%)
  105. Title                                    : Forced
  106. Language                                 : English
  107. Default                                  : No
  108. Forced                                   : No
  109. Text #4
  110. ID                                       : 6
  111. Format                                   : UTF-8
  112. Codec ID                                 : S_TEXT/UTF8
  113. Codec ID/Info                            : UTF-8 Plain Text
  114. Duration                                 : 2 h 5 min
  115. Bit rate                                 : 50 b/s
  116. Count of elements                        : 1906
  117. Stream size                              : 46.1 KiB (0%)
  118. Title                                    : SDH
  119. Language                                 : English
  120. Default                                  : No
  121. Forced                                   : No
  122. Text #5
  123. ID                                       : 7
  124. Format                                   : UTF-8
  125. Codec ID                                 : S_TEXT/UTF8
  126. Codec ID/Info                            : UTF-8 Plain Text
  127. Duration                                 : 2 h 5 min
  128. Bit rate                                 : 37 b/s
  129. Count of elements                        : 1322
  130. Stream size                              : 34.2 KiB (0%)
  131. Language                                 : English
  132. Default                                  : No
  133. Forced                                   : No
  134. Text #6
  135. ID                                       : 8
  136. Format                                   : UTF-8
  137. Codec ID                                 : S_TEXT/UTF8
  138. Codec ID/Info                            : UTF-8 Plain Text
  139. Duration                                 : 2 h 5 min
  140. Bit rate                                 : 35 b/s
  141. Count of elements                        : 1256
  142. Stream size                              : 32.1 KiB (0%)
  143. Language                                 : Czech
  144. Default                                  : No
  145. Forced                                   : No
  146. Text #7
  147. ID                                       : 9
  148. Format                                   : UTF-8
  149. Codec ID                                 : S_TEXT/UTF8
  150. Codec ID/Info                            : UTF-8 Plain Text
  151. Duration                                 : 2 h 5 min
  152. Bit rate                                 : 32 b/s
  153. Count of elements                        : 815
  154. Stream size                              : 29.5 KiB (0%)
  155. Language                                 : Danish
  156. Default                                  : No
  157. Forced                                   : No
  158. Text #8
  159. ID                                       : 10
  160. Format                                   : UTF-8
  161. Codec ID                                 : S_TEXT/UTF8
  162. Codec ID/Info                            : UTF-8 Plain Text
  163. Duration                                 : 2 h 5 min
  164. Bit rate                                 : 33 b/s
  165. Count of elements                        : 1150
  166. Stream size                              : 31.2 KiB (0%)
  167. Language                                 : German
  168. Default                                  : No
  169. Forced                                   : No
  170. Text #9
  171. ID                                       : 11
  172. Format                                   : UTF-8
  173. Codec ID                                 : S_TEXT/UTF8
  174. Codec ID/Info                            : UTF-8 Plain Text
  175. Duration                                 : 2 h 5 min
  176. Bit rate                                 : 44 b/s
  177. Count of elements                        : 1297
  178. Stream size                              : 41.3 KiB (0%)
  179. Title                                    : SDH
  180. Language                                 : German
  181. Default                                  : No
  182. Forced                                   : No
  183. Text #10
  184. ID                                       : 12
  185. Format                                   : UTF-8
  186. Codec ID                                 : S_TEXT/UTF8
  187. Codec ID/Info                            : UTF-8 Plain Text
  188. Duration                                 : 2 h 5 min
  189. Bit rate                                 : 62 b/s
  190. Count of elements                        : 1244
  191. Stream size                              : 57.1 KiB (0%)
  192. Language                                 : Greek
  193. Default                                  : No
  194. Forced                                   : No
  195. Text #11
  196. ID                                       : 13
  197. Format                                   : UTF-8
  198. Codec ID                                 : S_TEXT/UTF8
  199. Codec ID/Info                            : UTF-8 Plain Text
  200. Duration                                 : 2 h 5 min
  201. Bit rate                                 : 35 b/s
  202. Count of elements                        : 1248
  203. Stream size                              : 32.1 KiB (0%)
  204. Language                                 : Spanish
  205. Default                                  : No
  206. Forced                                   : No
  207. Text #12
  208. ID                                       : 14
  209. Format                                   : UTF-8
  210. Codec ID                                 : S_TEXT/UTF8
  211. Codec ID/Info                            : UTF-8 Plain Text
  212. Duration                                 : 2 h 5 min
  213. Bit rate                                 : 37 b/s
  214. Count of elements                        : 1252
  215. Stream size                              : 34.5 KiB (0%)
  216. Title                                    : Latin American
  217. Language                                 : Spanish
  218. Default                                  : No
  219. Forced                                   : No
  220. Text #13
  221. ID                                       : 15
  222. Format                                   : UTF-8
  223. Codec ID                                 : S_TEXT/UTF8
  224. Codec ID/Info                            : UTF-8 Plain Text
  225. Duration                                 : 2 h 6 min
  226. Bit rate                                 : 38 b/s
  227. Count of elements                        : 1195
  228. Stream size                              : 35.2 KiB (0%)
  229. Title                                    : Latin American SDH
  230. Language                                 : Spanish
  231. Default                                  : No
  232. Forced                                   : No
  233. Text #14
  234. ID                                       : 16
  235. Format                                   : UTF-8
  236. Codec ID                                 : S_TEXT/UTF8
  237. Codec ID/Info                            : UTF-8 Plain Text
  238. Duration                                 : 2 h 5 min
  239. Bit rate                                 : 37 b/s
  240. Count of elements                        : 1246
  241. Stream size                              : 34.1 KiB (0%)
  242. Language                                 : Finnish
  243. Default                                  : No
  244. Forced                                   : No
  245. Text #15
  246. ID                                       : 17
  247. Format                                   : UTF-8
  248. Codec ID                                 : S_TEXT/UTF8
  249. Codec ID/Info                            : UTF-8 Plain Text
  250. Duration                                 : 2 h 5 min
  251. Bit rate                                 : 33 b/s
  252. Count of elements                        : 1165
  253. Stream size                              : 30.7 KiB (0%)
  254. Language                                 : French
  255. Default                                  : No
  256. Forced                                   : No
  257. Text #16
  258. ID                                       : 18
  259. Format                                   : UTF-8
  260. Codec ID                                 : S_TEXT/UTF8
  261. Codec ID/Info                            : UTF-8 Plain Text
  262. Duration                                 : 2 h 6 min
  263. Bit rate                                 : 42 b/s
  264. Count of elements                        : 1460
  265. Stream size                              : 39.6 KiB (0%)
  266. Title                                    : SDH
  267. Language                                 : French
  268. Default                                  : No
  269. Forced                                   : No
  270. Text #17
  271. ID                                       : 19
  272. Format                                   : UTF-8
  273. Codec ID                                 : S_TEXT/UTF8
  274. Codec ID/Info                            : UTF-8 Plain Text
  275. Duration                                 : 2 h 5 min
  276. Bit rate                                 : 40 b/s
  277. Count of elements                        : 1282
  278. Stream size                              : 37.0 KiB (0%)
  279. Title                                    : Canadian
  280. Language                                 : French
  281. Default                                  : No
  282. Forced                                   : No
  283. Text #18
  284. ID                                       : 20
  285. Format                                   : UTF-8
  286. Codec ID                                 : S_TEXT/UTF8
  287. Codec ID/Info                            : UTF-8 Plain Text
  288. Duration                                 : 2 h 5 min
  289. Bit rate                                 : 57 b/s
  290. Count of elements                        : 1957
  291. Stream size                              : 53.0 KiB (0%)
  292. Title                                    : Canadian SDH
  293. Language                                 : French
  294. Default                                  : No
  295. Forced                                   : No
  296. Text #19
  297. ID                                       : 21
  298. Format                                   : UTF-8
  299. Codec ID                                 : S_TEXT/UTF8
  300. Codec ID/Info                            : UTF-8 Plain Text
  301. Duration                                 : 2 h 5 min
  302. Bit rate                                 : 33 b/s
  303. Count of elements                        : 1256
  304. Stream size                              : 30.6 KiB (0%)
  305. Language                                 : Hungarian
  306. Default                                  : No
  307. Forced                                   : No
  308. Text #20
  309. ID                                       : 22
  310. Format                                   : UTF-8
  311. Codec ID                                 : S_TEXT/UTF8
  312. Codec ID/Info                            : UTF-8 Plain Text
  313. Duration                                 : 2 h 5 min
  314. Bit rate                                 : 36 b/s
  315. Count of elements                        : 1258
  316. Stream size                              : 33.9 KiB (0%)
  317. Language                                 : Icelandic
  318. Default                                  : No
  319. Forced                                   : No
  320. Text #21
  321. ID                                       : 23
  322. Format                                   : UTF-8
  323. Codec ID                                 : S_TEXT/UTF8
  324. Codec ID/Info                            : UTF-8 Plain Text
  325. Duration                                 : 2 h 5 min
  326. Bit rate                                 : 38 b/s
  327. Count of elements                        : 1260
  328. Stream size                              : 35.3 KiB (0%)
  329. Language                                 : Italian
  330. Default                                  : No
  331. Forced                                   : No
  332. Text #22
  333. ID                                       : 24
  334. Format                                   : UTF-8
  335. Codec ID                                 : S_TEXT/UTF8
  336. Codec ID/Info                            : UTF-8 Plain Text
  337. Duration                                 : 2 h 5 min
  338. Bit rate                                 : 31 b/s
  339. Count of elements                        : 1177
  340. Stream size                              : 29.1 KiB (0%)
  341. Language                                 : Japanese
  342. Default                                  : No
  343. Forced                                   : No
  344. Text #23
  345. ID                                       : 25
  346. Format                                   : UTF-8
  347. Codec ID                                 : S_TEXT/UTF8
  348. Codec ID/Info                            : UTF-8 Plain Text
  349. Duration                                 : 2 h 5 min
  350. Bit rate                                 : 38 b/s
  351. Count of elements                        : 1255
  352. Stream size                              : 35.0 KiB (0%)
  353. Language                                 : Korean
  354. Default                                  : No
  355. Forced                                   : No
  356. Text #24
  357. ID                                       : 26
  358. Format                                   : UTF-8
  359. Codec ID                                 : S_TEXT/UTF8
  360. Codec ID/Info                            : UTF-8 Plain Text
  361. Duration                                 : 2 h 5 min
  362. Bit rate                                 : 35 b/s
  363. Count of elements                        : 1011
  364. Stream size                              : 32.8 KiB (0%)
  365. Language                                 : Dutch
  366. Default                                  : No
  367. Forced                                   : No
  368. Text #25
  369. ID                                       : 27
  370. Format                                   : UTF-8
  371. Codec ID                                 : S_TEXT/UTF8
  372. Codec ID/Info                            : UTF-8 Plain Text
  373. Duration                                 : 2 h 5 min
  374. Bit rate                                 : 33 b/s
  375. Count of elements                        : 1261
  376. Stream size                              : 31.1 KiB (0%)
  377. Language                                 : Norwegian
  378. Default                                  : No
  379. Forced                                   : No
  380. Text #26
  381. ID                                       : 28
  382. Format                                   : UTF-8
  383. Codec ID                                 : S_TEXT/UTF8
  384. Codec ID/Info                            : UTF-8 Plain Text
  385. Duration                                 : 2 h 5 min
  386. Bit rate                                 : 30 b/s
  387. Count of elements                        : 1249
  388. Stream size                              : 27.8 KiB (0%)
  389. Language                                 : Polish
  390. Default                                  : No
  391. Forced                                   : No
  392. Text #27
  393. ID                                       : 29
  394. Format                                   : UTF-8
  395. Codec ID                                 : S_TEXT/UTF8
  396. Codec ID/Info                            : UTF-8 Plain Text
  397. Duration                                 : 2 h 6 min
  398. Bit rate                                 : 36 b/s
  399. Count of elements                        : 1246
  400. Stream size                              : 33.8 KiB (0%)
  401. Language                                 : Portuguese
  402. Default                                  : No
  403. Forced                                   : No
  404. Text #28
  405. ID                                       : 30
  406. Format                                   : UTF-8
  407. Codec ID                                 : S_TEXT/UTF8
  408. Codec ID/Info                            : UTF-8 Plain Text
  409. Duration                                 : 2 h 5 min
  410. Bit rate                                 : 36 b/s
  411. Count of elements                        : 1253
  412. Stream size                              : 33.5 KiB (0%)
  413. Title                                    : Brazilian
  414. Language                                 : Portuguese
  415. Default                                  : No
  416. Forced                                   : No
  417. Text #29
  418. ID                                       : 31
  419. Format                                   : UTF-8
  420. Codec ID                                 : S_TEXT/UTF8
  421. Codec ID/Info                            : UTF-8 Plain Text
  422. Duration                                 : 2 h 6 min
  423. Bit rate                                 : 47 b/s
  424. Count of elements                        : 1621
  425. Stream size                              : 43.8 KiB (0%)
  426. Title                                    : Brazilian SDH
  427. Language                                 : Portuguese
  428. Default                                  : No
  429. Forced                                   : No
  430. Text #30
  431. ID                                       : 32
  432. Format                                   : UTF-8
  433. Codec ID                                 : S_TEXT/UTF8
  434. Codec ID/Info                            : UTF-8 Plain Text
  435. Duration                                 : 2 h 5 min
  436. Bit rate                                 : 38 b/s
  437. Count of elements                        : 1197
  438. Stream size                              : 35.0 KiB (0%)
  439. Language                                 : Romanian
  440. Default                                  : No
  441. Forced                                   : No
  442. Text #31
  443. ID                                       : 33
  444. Format                                   : UTF-8
  445. Codec ID                                 : S_TEXT/UTF8
  446. Codec ID/Info                            : UTF-8 Plain Text
  447. Duration                                 : 2 h 5 min
  448. Bit rate                                 : 32 b/s
  449. Count of elements                        : 1257
  450. Stream size                              : 29.4 KiB (0%)
  451. Language                                 : Slovak
  452. Default                                  : No
  453. Forced                                   : No
  454. Text #32
  455. ID                                       : 34
  456. Format                                   : UTF-8
  457. Codec ID                                 : S_TEXT/UTF8
  458. Codec ID/Info                            : UTF-8 Plain Text
  459. Duration                                 : 2 h 5 min
  460. Bit rate                                 : 35 b/s
  461. Count of elements                        : 949
  462. Stream size                              : 32.3 KiB (0%)
  463. Language                                 : Swedish
  464. Default                                  : No
  465. Forced                                   : No
  466. Text #33
  467. ID                                       : 35
  468. Format                                   : UTF-8
  469. Codec ID                                 : S_TEXT/UTF8
  470. Codec ID/Info                            : UTF-8 Plain Text
  471. Duration                                 : 2 h 5 min
  472. Bit rate                                 : 36 b/s
  473. Count of elements                        : 1254
  474. Stream size                              : 33.4 KiB (0%)
  475. Language                                 : Turkish
  476. Default                                  : No
  477. Forced                                   : No
  478. Text #34
  479. ID                                       : 36
  480. Format                                   : UTF-8
  481. Codec ID                                 : S_TEXT/UTF8
  482. Codec ID/Info                            : UTF-8 Plain Text
  483. Duration                                 : 2 h 5 min
  484. Bit rate                                 : 30 b/s
  485. Count of elements                        : 1259
  486. Stream size                              : 27.9 KiB (0%)
  487. Title                                    : Hong Kong
  488. Language                                 : Chinese
  489. Default                                  : No
  490. Forced                                   : No
  491. Text #35
  492. ID                                       : 37
  493. Format                                   : UTF-8
  494. Codec ID                                 : S_TEXT/UTF8
  495. Codec ID/Info                            : UTF-8 Plain Text
  496. Duration                                 : 2 h 5 min
  497. Bit rate                                 : 34 b/s
  498. Count of elements                        : 1261
  499. Stream size                              : 31.3 KiB (0%)
  500. Title                                    : Simplified
  501. Language                                 : Chinese
  502. Default                                  : No
  503. Forced                                   : No
  504. Text #36
  505. ID                                       : 38
  506. Format                                   : UTF-8
  507. Codec ID                                 : S_TEXT/UTF8
  508. Codec ID/Info                            : UTF-8 Plain Text
  509. Duration                                 : 2 h 5 min
  510. Bit rate                                 : 30 b/s
  511. Count of elements                        : 1273
  512. Stream size                              : 27.7 KiB (0%)
  513. Title                                    : Traditional
  514. Language                                 : Chinese
  515. Default                                  : No
  516. Forced                                   : No





此处一般会放置磁力链或种子下载链接,不过此链接需要注册会员才能看到,点击“立即注册”
磁力链下载【下载链接仅对注册会员开放,登陆后可见】
BT9527电影天堂 1、BT9527电影天堂提供的BT文件均来源于互联网抓取,只供网友学习交流、技术提升使用。
2、我们遵守BitTorrent点对点协议原则,任何版权问题请联系原资源发布商,我们不处理任何版权纠纷,谢谢!如有争议请联系邮箱:BT9527#hotmail.com(#换成@)
3、如果您发现某页面或地址有错误,请联系站长邮箱BT9527#hotmail.com(#换成@),我们会尽快处理。您的热心是对BT9527电影天堂最大的支持。
4、本站建议去正规影院观看电影以支持电影行业发展。
最新回复 (2)
  • 魔女时尚 1月前
    2
    为什么这几个奇异博士的链接下在不了?不是资源下载不了,而是链接下不到
  • B4dmin7 1月前
    3
    魔女时尚 为什么这几个奇异博士的链接下在不了?不是资源下载不了,而是链接下不到
    被人举报域名被污染了,已更换新域名,再试试吧

你可以在 登录 or 注册 后,对此帖发表评论!

返回
发新帖