t                                  : No
  • Forced                                   : No
  • Text #22
  • ID                                       : 24
  • Format                                   : UTF-8
  • Codec ID                                 : S_TEXT/UTF8
  • Codec ID/Info                            : UTF-8 Plain Text
  • Duration                                 : 2 h 5 min
  • Bit rate                                 : 35 b/s
  • Count of elements                        : 1011
  • Stream size                              : 32.8 KiB (0%)
  • Language                                 : Dutch
  • Default                                  : No
  • Forced                                   : No
  • Text #23
  • ID                                       : 25
  • Format                                   : UTF-8
  • Codec ID                                 : S_TEXT/UTF8
  • Codec ID/Info                            : UTF-8 Plain Text
  • Duration                                 : 2 h 5 min
  • Bit rate                                 : 33 b/s
  • Count of elements                        : 1261
  • Stream size                              : 31.1 KiB (0%)
  • Language                                 : Norwegian
  • Default                                  : No
  • Forced                                   : No
  • Text #24
  • ID                                       : 26
  • Format                                   : UTF-8
  • Codec ID                                 : S_TEXT/UTF8
  • Codec ID/Info                            : UTF-8 Plain Text
  • Duration                                 : 2 h 5 min
  • Bit rate                                 : 30 b/s
  • Count of elements                        : 1249
  • Stream size                              : 27.8 KiB (0%)
  • Language                                 : Polish
  • Default                                  : No
  • Forced                                   : No
  • Text #25
  • ID                                       : 27
  • Format                                   : UTF-8
  • Codec ID                                 : S_TEXT/UTF8
  • Codec ID/Info                            : UTF-8 Plain Text
  • Duration                                 : 2 h 6 min
  • Bit rate                                 : 36 b/s
  • Count of elements                        : 1246
  • Stream size                              : 33.8 KiB (0%)
  • Language                                 : Portuguese
  • Default                                  : No
  • Forced                                   : No
  • Text #26
  • ID                                       : 28
  • Format                                   : UTF-8
  • Codec ID                                 : S_TEXT/UTF8
  • Codec ID/Info                            : UTF-8 Plain Text
  • Duration                                 : 2 h 5 min
  • Bit rate                                 : 32 b/s
  • Count of elements                        : 1257
  • Stream size                              : 29.4 KiB (0%)
  • Language                                 : Slovak
  • Default                                  : No
  • Forced                                   : No
  • Text #27
  • ID                                       : 29
  • Format                                   : UTF-8
  • Codec ID                                 : S_TEXT/UTF8
  • Codec ID/Info                            : UTF-8 Plain Text
  • Duration                                 : 2 h 5 min
  • Bit rate                                 : 33 b/s
  • Count of elements                        : 961
  • Stream size                              : 30.4 KiB (0%)
  • Language                                 : Slovenian
  • Default                                  : No
  • Forced                                   : No
  • Text #28
  • ID                                       : 30
  • Format                                   : UTF-8
  • Codec ID                                 : S_TEXT/UTF8
  • Codec ID/Info                            : UTF-8 Plain Text
  • Duration                                 : 2 h 5 min
  • Bit rate                                 : 37 b/s
  • Count of elements                        : 1252
  • Stream size                              : 34.5 KiB (0%)
  • Title                                    : Latin America
  • Language                                 : Spanish
  • Default                                  : No
  • Forced                                   : No
  • Text #29
  • ID                                       : 31
  • Format                                   : UTF-8
  • Codec ID                                 : S_TEXT/UTF8
  • Codec ID/Info                            : UTF-8 Plain Text
  • Duration                                 : 2 h 5 min
  • Bit rate                                 : 35 b/s
  • Count of elements                        : 949
  • Stream size                              : 32.3 KiB (0%)
  • Language                                 : Swedish
  • Default                                  : No
  • Forced                                   : No
  • Text #30
  • ID                                       : 32
  • Format                                   : UTF-8
  • Codec ID                                 : S_TEXT/UTF8
  • Codec ID/Info                            : UTF-8 Plain Text
  • Duration                                 : 2 h 5 min
  • Bit rate                                 : 74 b/s
  • Count of elements                        : 1262
  • Stream size                              : 68.1 KiB (0%)
  • Language                                 : Thai
  • Default                                  : No
  • Forced                                   : No
  • Text #31
  • ID                                       : 33
  • Format                                   : UTF-8
  • Codec ID                                 : S_TEXT/UTF8
  • Codec ID/Info                            : UTF-8 Plain Text
  • Duration                                 : 2 h 5 min
  • Bit rate                                 : 36 b/s
  • Count of elements                        : 1254
  • Stream size                              : 33.4 KiB (0%)
  • Language                                 : Turkish
  • Default                                  : No
  • Forced                                   : No
  • Text #32
  • ID                                       : 34
  • Format                                   : UTF-8
  • Codec ID                                 : S_TEXT/UTF8
  • Codec ID/Info                            : UTF-8 Plain Text
  • Duration                                 : 2 h 5 min
  • Bit rate                                 : 47 b/s
  • Count of elements                        : 1260
  • Stream size                              : 43.2 KiB (0%)
  • Language                                 : Vietnamese
  • Default                                  : No
  • Forced                                   : No





  • 此处一般会放置磁力链或种子下载链接,不过此链接需要注册会员才能看到,点击“立即注册”
    磁力链下载【下载链接仅对注册会员开放,登陆后可见】
    上一篇:潜伏4:锁命亡灵[中文字幕].Insidious.The.Last.Key.2018.1080p.BluRay.HEVC.10bit-MiniHD 2.26GB下一篇:奇异博士2[IMAX满屏版][简繁英特效字幕].Doctor.Strange.2022.IMAX.1080p.WEB-DL.DDP5.1.Atmos.H264-CHDBits 7.34GB
    BT9527电影天堂 1、BT9527电影天堂提供的BT文件均来源于互联网抓取,只供网友学习交流、技术提升使用。
    2、我们遵守BitTorrent点对点协议原则,任何版权问题请联系原资源发布商,我们不处理任何版权纠纷,谢谢!如有争议请联系邮箱:BT9527#hotmail.com(#换成@)
    3、如果您发现某页面或地址有错误,请联系站长邮箱BT9527#hotmail.com(#换成@),我们会尽快处理。您的热心是对BT9527电影天堂最大的支持。
    4、本站建议去正规影院观看电影以支持电影行业发展。
    最新回复 (0)

    你可以在 登录 or 注册 后,对此帖发表评论!

    返回
    发新帖