潜伏4:锁命亡灵[中文字幕].Insidious.The.Last.Key.2018.1080p.BluRay.HEVC.10bit-MiniHD 2.26GB

版主小s 1月前 221

✔资源类型:暂未分类   ✔电影年份:2018   ✔电影地区:欧美   ✔电影分类:惊悚

◎标  题 潜伏4:锁命亡灵
◎译  名 潜伏4 / 儿凶 第四回(港) / 阴儿房第4章:锁命亡灵(台) / 潜伏4:最后的线索 / 潜伏4:最后的钥匙 / Insidious: Chapter 4
◎片  名 Insidious: The Last Key
◎年  代 2018
◎产  地 美国 / 加拿大
◎类  别 惊悚 / 恐怖
◎语  言 英语
◎上映日期 2018-01-05(美国)
◎IMDb评分 5.7/10 (57342人评价)
◎IMDb链接 https://www.imdb.com/title/tt5726086/
◎豆瓣评分 6.5/10 (21766人评价)
◎豆瓣链接 https://movie.douban.com/subject/26794994/
◎片  长 103分钟
◎导  演 亚当·罗比特尔 Adam Robitel
◎编  剧 雷·沃纳尔 Leigh Whannell
◎演  员 林·沙烨 Lin Shaye
       雷·沃纳尔 Leigh Whannell
       安格斯·桑普森 Angus Sampson
       柯克·埃斯沃多 Kirk Acevedo
       凯特琳·杰拉德 Caitlin Gerard
       史宾塞·洛克 Spencer Locke
       乔什·斯图沃特 Josh Stewart
       特莎·费勒 Tessa Ferrer
       阿勒奎·里德 Aleque Reid
       艾娃·寇克尔 Ava kolker
       皮尔斯·波普 Pierce Pope
       布鲁斯·戴维森 Bruce Davison
       哈维尔·博泰特 Javier Botet
       马库斯·亨德森 Marcus Henderson
       阿曼达·亚罗斯 Amanda Jaros
       泰·辛普金斯 Ty Simpkins
       哈娜·海耶斯 Hana Hayes
       温子仁 James Wan
       雷·沃纳尔 Leigh Whannell
       约瑟夫·比沙拉 Joseph Bishara

◎标  签 恐怖 / 惊悚 / 美国 / 灵异 / 悬疑 / 2018 / 超现实 / 親情

◎简  介
  《阴儿房第3章:从灵开始》琳雪伊回归饰演超自然心理学家,由《失魂记忆》导演亚当罗勃提尔执导、《阴儿房》系列原创团队之一的雷沃纳尔执笔剧本、鬼才导演温子仁将担任制片,打造极致惊悚的最新经典。                                       
                                    《阴儿房第4章:锁命亡灵》不仅将带来恐怖加倍的全新故事,制片规模亦更较以往全面升级,导演受访时表示:「开拍前我甚至派特效师至美国费城一座有两百年历史的废弃监狱考察,我相信唯有体验过那种压迫黑暗且气氛极难承受的环境,我们才能真实呈现出囚禁那种最骇人的场景。」                                       
                                    故事讲述,灵媒爱丽丝在一次偶然的案件调查中,却意外将他带回最不愿面对的过往,更被迫面对内心最害怕的秘密,「恐惧是回家唯一的路⋯」。她将被迫「回家」面对内心深处最恐惧的黑暗阴影。                                       
                                    在《阴儿房》系列扮演灵媒的琳雪伊无疑是贯穿电影的灵魂角色,全新作品《阴儿房第4章:锁命亡灵》中将揭露更多关于她的背景叙述,琳雪伊表示:...
  1. ##### MediaInfo ######
  2. General
  3. Unique ID                                : 88234985040975352337348094651744209869 (0x426170A2BED139C3BAC9F64FF7114BCD)
  4. Complete name                            : 潜伏4.Insidious.The.Last.Key.2018.1080p.BluRay.HEVC.10bit-MiniHD.mkv
  5. Format                                   : Matroska
  6. Format version                           : Version 4
  7. File size                                : 2.26 GiB
  8. Duration                                 : 1 h 43 min
  9. Overall bit rate                         : 3 127 kb/s
  10. Movie name                               : 潜伏4.Insidious.The.Last.Key.2018.1080p.BluRay.HEVC.10bit-GHFLY
  11. Encoded date                             : UTC 2018-03-27 11:49:35
  12. Writing application                      : mkvmerge v21.0.0 ('Tardigrades Will Inherit The Earth') 64-bit
  13. Writing library                          : libebml v1.3.5 + libmatroska v1.4.8
  14. Cover                                    : Yes
  15. Attachments                              : cover_land.jpg / small_cover.jpg / small_cover_land.jpg / cover.jpg
  16. Video
  17. ID                                       : 1
  18. Format                                   : HEVC
  19. Format/Info                              : High Efficiency Video Coding
  20. Format profile                           : Main 10@L4@High
  21. Codec ID                                 : V_MPEGH/ISO/HEVC
  22. Duration                                 : 1 h 43 min
  23. Bit rate                                 : 2 737 kb/s
  24. Width                                    : 1 920 pixels
  25. Height                                   : 804 pixels
  26. Display aspect ratio                     : 2.40:1
  27. Frame rate mode                          : Constant
  28. Frame rate                               : 23.976 (24000/1001/53354) FPS
  29. Color space                              : YUV
  30. Chroma subsampling                       : 4:2:0
  31. Bit depth                                : 10 bits
  32. Bits/(Pixel*Frame)                       : 0.074
  33. Stream size                              : 1.98 GiB (88%)
  34. Writing library                          : x265 2.7+12-98e48e8dd6ab:[Windows][MSVC 1900][64 bit] 10bit
  35. Encoding settings                        : cpuid=533541173503 / frame-threads=4 / numa-pools=16 / wpp / no-pmode / no-pme / no-psnr / no-ssim / log-level=2 / input-csp=1 / input-res=1920x804 / interlace=0 / total-frames=0 / level-idc=0 / high-tier=1 / uhd-bd=0 / ref=4 / no-allow-non-conformance / no-repeat-headers / annexb / no-aud / no-hrd / info / hash=0 / no-temporal-layers / no-open-gop / min-keyint=1 / keyint=600 / gop-lookahead=0 / bframes=6 / b-adapt=2 / b-pyramid / bframe-bias=0 / rc-lookahead=25 / lookahead-slices=4 / NTMzNTQ=uuDQuD2mJt9fsCf / scenecut=40 / radl=0 / no-intra-refresh / ctu=64 / min-cu-size=8 / no-rect / no-amp / max-tu-size=32 / tu-inter-depth=1 / tu-intra-depth=1 / limit-tu=0 / rdoq-level=2 / dynamic-rd=0.00 / no-ssim-rd / signhide / no-tskip / nr-intra=0 / nr-inter=0 / no-constrained-intra / strong-intra-smoothing / max-merge=3 / limit-refs=3 / limit-modes / me=3 / subme=3 / merange=44 / temporal-mvp / weightp / weightb / no-analyze-src-pics / deblock=0:0 / no-sao / no-sao-non-deblock / rd=4 / no-early-skip / rskip / no-fast-intra / no-tskip-fast / no-cu-lossless / no-b-intra / no-splitrd-skip / rdpenalty=0 / psy-rd=3.00 / psy-rdoq=2.00 / no-rd-refine / no-lossless / cbqpoffs=0 / crqpoffs=0 / rc=crf / crf=21.0 / qcomp=0.65 / qpstep=4 / stats-write=0 / stats-read=0 / vbv-maxrate=22000 / vbv-bufsize=22000 / vbv-init=0.9 / crf-max=0.0 / crf-min=0.0 / ipratio=1.40 / pbratio=1.30 / aq-mode=3 / aq-strength=0.80 / cutree / zone-count=0 / no-strict-cbr / qg-size=32 / no-rc-grain / qpmax=24 / qpmin=0 / no-const-vbv / sar=0 / overscan=0 / videoformat=5 / range=0 / colorprim=1 / transfer=2 / colormatrix=2 / chromaloc=0 / display-window=0 / max-cll=0,0 / min-luma=0 / max-luma=1023 / log2-max-poc-lsb=8 / vui-timing-info / vui-hrd-info / slices=1 / no-opt-qp-pps / no-opt-ref-list-length-pps / no-multi-pass-opt-rps / scenecut-bias=0.05 / no-opt-cu-delta-qp / no-aq-motion / no-hdr / no-hdr-opt / no-dhdr10-opt / no-idr-recovery-sei / analysis-reuse-level=5 / scale-factor=0 / refine-intra=0 / refine-inter=0 / refine-mv=0 / no-limit-sao / ctu-info=0 / no-lowpass-dct / refine-mv-type=0 / copy-pic=1 / max-ausize-factor=1.0 / no-dynamic-refine
  36. Default                                  : Yes
  37. Forced                                   : No
  38. Color range                              : Limited
  39. Color primaries                          : BT.709
  40. Audio
  41. ID                                       : 2
  42. Format                                   : Opus
  43. Codec ID                                 : A_OPUS
  44. Duration                                 : 1 h 43 min
  45. Bit rate                                 : 387 kb/s
  46. Channel(s)                               : 6 channels
  47. Channel layout                           : L R C Ls Rs Cb LFE
  48. Sampling rate                            : 48.0 kHz
  49. Frame rate                               : 50.000 FPS (960 SPF)
  50. Compression mode                         : Lossy
  51. Stream size                              : 286 MiB (12%)
  52. Language                                 : English
  53. Default                                  : Yes
  54. Forced                                   : No
  55. Text
  56. ID                                       : 3
  57. Format                                   : ASS
  58. Codec ID                                 : S_TEXT/ASS
  59. Codec ID/Info                            : Advanced Sub Station Alpha
  60. Duration                                 : 1 h 36 min
  61. Bit rate                                 : 133 b/s
  62. Count of elements                        : 844
  63. Compression mode                         : Lossless
  64. Stream size                              : 94.4 KiB (0%)
  65. Language                                 : Chinese
  66. Default                                  : Yes
  67. Forced                                   : No
  68. Menu
  69. 00:00:00.000                             : en:Chapter 01
  70. 00:16:21.313                             : en:Chapter 02
  71. 00:19:54.985                             : en:Chapter 03
  72. 00:22:29.056                             : en:Chapter 04
  73. 00:29:03.408                             : en:Chapter 05
  74. 00:36:24.140                             : en:Chapter 06
  75. 00:44:05.684                             : en:Chapter 07
  76. 00:54:14.501                             : en:Chapter 08
  77. 00:57:21.604                             : en:Chapter 09
  78. 01:02:08.182                             : en:Chapter 10
  79. 01:05:17.663                             : en:Chapter 11
  80. 01:10:17.713                             : en:Chapter 12
  81. 01:16:58.238                             : en:Chapter 13
  82. 01:22:11.593                             : en:Chapter 14
  83. 01:29:49.175                             : en:Chapter 15
  84. 01:34:33.959                             : en:Chapter 16



此处一般会放置磁力链或种子下载链接,不过此链接需要注册会员才能看到,点击“立即注册”
磁力链下载【下载链接仅对注册会员开放,登陆后可见】
BT9527电影天堂 1、BT9527电影天堂提供的BT文件均来源于互联网抓取,只供网友学习交流、技术提升使用。
2、我们遵守BitTorrent点对点协议原则,任何版权问题请联系原资源发布商,我们不处理任何版权纠纷,谢谢!如有争议请联系邮箱:BT9527#hotmail.com(#换成@)
3、如果您发现某页面或地址有错误,请联系站长邮箱BT9527#hotmail.com(#换成@),我们会尽快处理。您的热心是对BT9527电影天堂最大的支持。
4、本站建议去正规影院观看电影以支持电影行业发展。
最新回复 (0)

你可以在 登录 or 注册 后,对此帖发表评论!

返回
发新帖