白百合[简繁字幕].White.Lily.2016.BluRay.1080p.x265.10bit-MiniHD 2.27GB

版主小s 1月前 735

◎标 题 白百合

◎译 名 禁断之百合(港) / 白百合之恋(台) / White Lily

◎片 名 ホワイトリリー

◎年 代 2016

◎产 地 日本

◎类 别 情色 / 同性

◎语 言 日语

◎上映日期 2016-11-26(日本)

◎IMDb评分 4.5/10 (434人评价)

◎IMDb链接 https://www.imdb.com/title/tt5961906/

◎豆瓣评分 5.2/10 (2781人评价)

◎豆瓣链接 https://movie.douban.com/subject/26855690/

◎片 长 80分钟

◎导 演 中田秀夫 Hideo Nakata

◎编 剧 加藤淳也 Jun'ya Katô

三宅隆太 Ryûta Miyake

◎演 员 飞鸟凛 Rin Asuka

山口香绪里 Kaori Yamaguti

町井祥真 Shôma Machii

西川可奈子 Kanako Nishikawa

三上市朗 Ichiro Mikami

镰仓太郎 Tarô Kamakura

伊藤可可 Kôko Itô

榎本由希 Yuki Enomoto

松山尚子 Hisako Matsuyama

林田麻里 Miki Hayashida

◎标 签 情色 / 日本 / 同性 / 白百合 / 粉红电影 / 2016 / 剧情 / 肉番

◎简 介

电影公司「日活」创业百年,最具代表性的一个品牌,是在七、 八十年代风靡一时的「粉红映画」(日文叫Roman Porno,海外称之为Pink Movie),亦即是浪漫化的成人电影。今年适逢「粉红映画」诞生四十五周年,「日活」特别筹划了「Roman Porno Reboot」计划,找来园子温、行定勳、中田秀夫、盐田明彦、白石和弥五位名导操刀,各拍一部粉红片。五人要跟足过往的游戏规则:每十分钟要有一场情慾戏、片长必须在七十至八十分钟之间、一律只有很低的製作费、要一星期内完成拍摄,其他一切自由发挥。结果证明五位导演不但玩得起,而且还玩得极有一手。

盐田的《湿濡的女人》最先曝光,重新演绎「粉红」经典《湿濡的恋人们》,讲野性少女在海边故意湿身,然后贱价卖身给路过的男人。白石执导的《雌猫们》同样向经典《雌猫们之夜》致敬,新版搬到池袋街头上演,讲在网吧打趸的难民、单...

  1. ##### MediaInfo ######

  2. General

  3. Unique ID : 56660882601358323858083770997323694965 (0x2AA07D323B82C43ABF5909B270FD8375)

  4. Complete name : White.Lily.2016.BluRay.1080p.x265.10bit-MiniHD.mkv

  5. Format : Matroska

  6. Format version : Version 4

  7. File size : 2.27 GiB

  8. Duration : 1 h 20 min

  9. Overall bit rate : 4 051 kb/s

  10. Encoded date : UTC 2018-02-07 17:28:20

  11. Writing application : mkvmerge v20.0.0 ('I Am The Sun') 64-bit

  12. Writing library : libebml v1.3.5 + libmatroska v1.4.8

  13. Video

  14. ID : 1

  15. Format : HEVC

  16. Format/Info : High Efficiency Video Coding

  17. Format profile : Main 10@L4@High

  18. Codec ID : V_MPEGH/ISO/HEVC

  19. Duration : 1 h 20 min

  20. Bit rate : 3 384 kb/s

  21. Width : 1 920 pixels

  22. Height : 1 036 pixels

  23. Display aspect ratio : 1.85:1

  24. Frame rate mode : Constant

  25. Frame rate : 23.976 (24000/1001/53354) FPS

  26. Color space : YUV

  27. Chroma subsampling : 4:2:0

  28. Bit depth : 10 bits

  29. Bits/(Pixel*Frame) : 0.071

  30. Stream size : 1.90 GiB (84%)

  31. Writing library : x265 2.6+37-1949157705ce:[Windows][MSVC 1900][64 bit] 10bit

  32. Encoding settings : cpuid=533541173503 / frame-threads=2 / numa-pools=4 / wpp / no-pmode / no-pme / no-psnr / no-ssim / log-level=2 / input-csp=1 / input-res=1920x1036 / interlace=0 / total-frames=115525 / level-idc=0 / high-tier=1 / uhd-bd=0 / ref=5 / no-allow-non-conformance / no-repeat-headers / annexb / no-aud / no-hrd / info / hash=0 / no-temporal-layers / no-open-gop / min-keyint=1 / keyint=360 / gop-lookahead=0 / bframes=8 / b-adapt=2 / b-pyramid / bframe-bias=0 / rc-lookahead=60 / lookahead-slices=4 / NTMzNTQ=uuDQuD2mJt9fsCf / scenecut=40 / radl=0 / no-intra-refresh / ctu=32 / min-cu-size=8 / no-rect / no-amp / max-tu-size=16 / tu-inter-depth=2 / tu-intra-depth=2 / limit-tu=4 / rdoq-level=1 / dynamic-rd=0.00 / ssim-rd / signhide / no-tskip / nr-intra=0 / nr-inter=0 / no-constrained-intra / no-strong-intra-smoothing / max-merge=3 / limit-refs=2 / limit-modes / me=3 / subme=5 / merange=25 / temporal-mvp / weightp / weightb / no-analyze-src-pics / deblock=-1:-1 / no-sao / no-sao-non-deblock / rd=4 / no-early-skip / rskip / no-fast-intra / no-tskip-fast / no-cu-lossless / b-intra / no-splitrd-skip / rdpenalty=1 / psy-rd=0.00 / psy-rdoq=2.00 / no-rd-refine / no-lossless / cbqpoffs=-2 / crqpoffs=-2 / rc=crf / crf=17.0 / qcomp=0.65 / qpstep=4 / stats-write=0 / stats-read=0 / vbv-maxrate=28000 / vbv-bufsize=30000 / vbv-init=0.9 / crf-max=0.0 / crf-min=0.0 / ipratio=1.40 / pbratio=1.30 / aq-mode=2 / aq-strength=0.90 / cutree / zone-count=0 / no-strict-cbr / qg-size=16 / no-rc-grain / qpmax=69 / qpmin=0 / no-const-vbv / sar=0 / overscan=0 / videoformat=5 / range=0 / colorprim=1 / transfer=2 / colormatrix=2 / chromaloc=0 / display-window=0 / max-cll=0,0 / min-luma=0 / max-luma=1023 / log2-max-poc-lsb=8 / vui-timing-info / vui-hrd-info / slices=1 / no-opt-qp-pps / no-opt-ref-list-length-pps / no-multi-pass-opt-rps / scenecut-bias=0.05 / no-opt-cu-delta-qp / no-aq-motion / no-hdr / no-hdr-opt / no-dhdr10-opt / analysis-reuse-level=5 / scale-factor=0 / refine-intra=0 / refine-inter=0 / refine-mv=0 / no-limit-sao / ctu-info=0 / no-lowpass-dct / refine-mv-type=0 / copy-pic=1

  33. Default : Yes

  34. Forced : No

  35. Color range : Limited

  36. Color primaries : BT.709

  37. Audio

  38. ID : 2

  39. Format : AC-3

  40. Format/Info : Audio Coding 3

  41. Commercial name : Dolby Digital

  42. Codec ID : A_AC3

  43. Duration : 1 h 20 min

  44. Bit rate mode : Constant

  45. Bit rate : 640 kb/s

  46. Channel(s) : 6 channels

  47. Channel layout : L R C LFE Ls Rs

  48. Sampling rate : 48.0 kHz

  49. Frame rate : 31.250 FPS (1536 SPF)

  50. Compression mode : Lossy

  51. Stream size : 368 MiB (16%)

  52. Language : Japanese

  53. Service kind : Complete Main

  54. Default : Yes

  55. Forced : No

  56. Text #1

  57. ID : 3

  58. Format : PGS

  59. Muxing mode : zlib

  60. Codec ID : S_HDMV/PGS

  61. Codec ID/Info : Picture based subtitle format used on BDs/HD-DVDs

  62. Duration : 1 h 19 min

  63. Bit rate : 24.8 kb/s

  64. Count of elements : 1340

  65. Stream size : 14.2 MiB (1%)

  66. Title : 简体中文

  67. Language : Chinese

  68. Default : Yes

  69. Forced : No

  70. Text #2

  71. ID : 4

  72. Format : PGS

  73. Muxing mode : zlib

  74. Codec ID : S_HDMV/PGS

  75. Codec ID/Info : Picture based subtitle format used on BDs/HD-DVDs

  76. Duration : 1 h 19 min

  77. Bit rate : 25.4 kb/s

  78. Count of elements : 1340

  79. Stream size : 14.5 MiB (1%)

  80. Title : 繁体中文

  81. Language : Chinese

  82. Default : No

  83. Forced : No

  84. Menu

  85. 00:00:00.000 : en:Chapter 1

  86. 00:17:23.667 : en:Chapter 2

  87. 00:28:42.846 : en:Chapter 3

  88. 00:43:28.772 : en:Chapter 4

  89. 00:59:43.997 : en:Chapter 5

  90. 01:09:41.135 : en:Chapter 6


复制代码


磁力链:
  • magnet:?xt=urn:btih:905897D0AF4D5E174D076A94CD6F29C7DFEA669B
上传的附件:
BT9527电影天堂 1、BT9527电影天堂提供的BT文件均来源于互联网抓取,只供网友学习交流、技术提升使用。
2、我们遵守BitTorrent点对点协议原则,任何版权问题请联系原资源发布商,我们不处理任何版权纠纷,谢谢!如有争议请联系邮箱:BT9527#hotmail.com(#换成@)
3、如果您发现某页面或地址有错误,请联系站长邮箱BT9527#hotmail.com(#换成@),我们会尽快处理。您的热心是对BT9527电影天堂最大的支持。
4、本站建议去正规影院观看电影以支持电影行业发展。
最新回复 (0)

你可以在 登录 or 注册 后,对此帖发表评论!

返回
发新帖