多伦多来的男人[中文字幕].The.Man.from.Toronto.2022.1080p.NF.WEBRip.DDP5.1.Atmos.x264-CM 2.48GB

版主小s 1月前 189

◎译 名 多伦多来的男人 / 来自多伦多的男人

◎片 名 The Man from Toronto

◎年 代 2022

◎产 地 美国

◎类 别 喜剧 / 动作 / 惊悚

◎语 言 英语

◎上映日期 2022-06-24(美国网络)

◎IMDb链接 https://www.imdb.com/title/tt11671006/

◎豆瓣链接 https://movie.douban.com/subject/34959527/

◎片 长 110分钟

◎导 演 帕特里克·休斯 Patrick Hughes (id:1328352)

◎编 剧 罗比·福克斯 Robbie Fox (id:1434128)

克里斯·布雷姆纳 Chris Bremner (id:1406258)

杰森·布鲁门塔尔 Jason Blumenthal (id:1448830)

◎演 员 凯文·哈特 Kevin Hart (id:1286162)

伍迪·哈里森 Woody Harrelson (id:1053560)

凯莉·库柯 Kaley Cuoco (id:1036309)

贾思敏·马修斯 Jasmine Mathews (id:1389210)

艾伦·巴金 Ellen Barkin (id:1000069)

莱拉·罗兰 Lela Loren (id:1387491)

凯特·德拉蒙德 Kate Drummond (id:1452545)

罗布·阿切尔 Rob Archer (id:1396167)

皮尔森·福德 Pierson Fode (id:1325406)

山下智久 Tomohisa Yamashita (id:1000845)

罗尼·罗 Ronnie Rowe (id:1470333)

杰森·麦克唐纳 Jason MacDonald (id:1124700)

简卡洛斯·卡纳拉 Jencarlos Canela (id:1242281)

达林·贝克 Darrin Baker (id:1059717)

费利佩·奥凯 Felipe Aukai (id:1467064)

James Collins James Collins (id:1393474)

格里莎·帕斯特纳克 Grisha Pasternak (id:1448828)

特洛伊·布德罗 Troy Boudreau (id:1410677)

辛西娅·罗恩 Cynthia Ron (id:1450539)

吉姆·查德 Jim Chad (id:1194848)

梅兰妮·利伯德 Melanie Liburd (id:1334275)

杰森·布鲁门塔尔 Jason Blumenthal (id:1448830)

拉民·贾瓦迪 Ramin Djawadi (id:1302385)

罗伯·哈迪 Rob Hardy (id:1303822)

乔恩·安布罗斯 Jon Ambrose (id:1467730)

◎简 介

伍迪·哈里森代替了杰森·斯坦森,将与凯文·哈特一起主演动作喜剧新片《多伦多来的男人》(Man From Toronto)。此前片方索尼在谈哈特+斯坦森,不过后者在一周前退出,因为他坚持该片要拍成R级,而索尼拒绝,希望有更广泛的观众。如今哈里森已签约,而该片此前定档今年11月20日北美上映,本来时间就比较紧,如今经历了换人,拍摄更紧迫了。

《多伦多来的男人》由《王牌保镖》导演帕特里克·休斯执导,主角是一个外号叫“多伦多来的男人”的世界最强杀手,和一个纽约来的冒失鬼,两人在一间Airbnb民宿相遇,阴差阳错搞错身份,并一起被致命杀手追杀。

  1. Video

  2. ID : 1

  3. Format : AVC

  4. Format/Info : Advanced Video Codec

  5. Format profile : Main@L4

  6. Format settings : CABAC / 3 Ref Frames

  7. Format settings, CABAC : Yes

  8. Format settings, Reference frames : 3 frames

  9. Codec ID : V_MPEG4/ISO/AVC

  10. Duration : 1 h 52 min

  11. Bit rate mode : Variable

  12. Bit rate : 2 313 kb/s

  13. Maximum bit rate : 4 740 kb/s

  14. Width : 1 920 pixels

  15. Height : 1 080 pixels

  16. Display aspect ratio : 16:9

  17. Frame rate mode : Constant

  18. Frame rate : 23.976 (24000/1001/53354) FPS

  19. Color space : YUV

  20. Chroma subsampling : 4:2:0

  21. Bit depth : 8 bits

  22. Scan type : Progressive

  23. Bits/(Pixel*Frame) : 0.047

  24. Stream size : 1.87 GiB (76%)

  25. Writing library : x264 core 148 r2727 7d026e8

  26. Encoding settings : cabac=1 / ref=3 / deblock=1:0:0 / analyse=0x1:0x111 / me=umh / subme=10 / psy=1 / psy_rd=1.00:0.00 / mixed_ref=1 / me_range=24 / chroma_me=1 / trellis=2 / 8x8dct=0 / cqm=0 / deadzone=21,11 / fast_pskip=1 / chroma_qp_offset=-2 / threads=6 / lookahead_threads=1 / sliced_threads=0 / nr=0 / decimate=1 / interlaced=0 / NTMzNTQ= / bluray_compat=0 / stitchable=1 / constrained_intra=0 / bframes=2 / b_pyramid=0 / b_adapt=2 / b_bias=0 / direct=3 / weightb=1 / open_gop=0 / weightp=2 / keyint=250 / keyint_min=23 / scenecut=0 / intra_refresh=0 / rc_lookahead=48 / rc=2pass / mbtree=1 / bitrate=2313 / ratetol=1.0 / qcomp=0.50 / qpmin=6 / qpmax=51 / qpstep=4 / cplxblur=20.0 / qblur=0.5 / vbv_maxrate=4740 / vbv_bufsize=6320 / nal_hrd=vbr / filler=0 / NTMzNTQ=LmsMAP37EqsCpk / ip_ratio=1.40 / aq=1:1.00

  27. Language : English

  28. Default : Yes

  29. Forced : No


  30. Audio

  31. ID : 2

  32. Format : E-AC-3 JOC

  33. Format/Info : Enhanced AC-3 with Joint Object Coding

  34. Commercial name : Dolby Digital Plus with Dolby Atmos

  35. Codec ID : A_EAC3

  36. Duration : 1 h 52 min

  37. Bit rate mode : Constant

  38. Bit rate : 768 kb/s

  39. Channel(s) : 6 channels

  40. Channel layout : L R C LFE Ls Rs

  41. Sampling rate : 48.0 kHz

  42. Frame rate : 31.250 FPS (1536 SPF)

  43. Compression mode : Lossy

  44. Stream size : 616 MiB (24%)

  45. Language : English

  46. Service kind : Complete Main

  47. Default : Yes

  48. Forced : No

  49. Complexity index : 16

  50. Number of dynamic objects : 15

  51. Bed channel count : 1 channel

  52. Bed channel configuration : LFE


  53. Text #1

  54. ID : 3

  55. Format : UTF-8

  56. Codec ID : S_TEXT/UTF8

  57. Codec ID/Info : UTF-8 Plain Text

  58. Duration : 1 h 44 min

  59. Bit rate : 90 b/s

  60. Count of elements : 2283

  61. Stream size : 69.5 KiB (0%)

  62. Title : SDH

  63. Language : English

  64. Default : No

  65. Forced : No


  66. Text #2

  67. ID : 4

  68. Format : UTF-8

  69. Codec ID : S_TEXT/UTF8

  70. Codec ID/Info : UTF-8 Plain Text

  71. Duration : 16 s 350 ms

  72. Bit rate : 33 b/s

  73. Count of elements : 4

  74. Stream size : 68.0 Bytes (0%)

  75. Title : Forced

  76. Language : English

  77. Default : Yes

  78. Forced : Yes


  79. Text #3

  80. ID : 5

  81. Format : UTF-8

  82. Codec ID : S_TEXT/UTF8

  83. Codec ID/Info : UTF-8 Plain Text

  84. Duration : 1 h 44 min

  85. Bit rate : 79 b/s

  86. Count of elements : 1937

  87. Stream size : 60.9 KiB (0%)

  88. Language : English

  89. Default : No

  90. Forced : No


  91. Text #4

  92. ID : 6

  93. Format : UTF-8

  94. Codec ID : S_TEXT/UTF8

  95. Codec ID/Info : UTF-8 Plain Text

  96. Duration : 1 h 48 min

  97. Bit rate : 131 b/s

  98. Count of elements : 1896

  99. Stream size : 105 KiB (0%)

  100. Language : Arabic

  101. Default : No

  102. Forced : No


  103. Text #5

  104. ID : 7

  105. Format : UTF-8

  106. Codec ID : S_TEXT/UTF8

  107. Codec ID/Info : UTF-8 Plain Text

  108. Duration : 1 h 48 min

  109. Bit rate : 68 b/s

  110. Count of elements : 1853

  111. Stream size : 54.5 KiB (0%)

  112. Language : Czech

  113. Default : No

  114. Forced : No


  115. Text #6

  116. ID : 8

  117. Format : UTF-8

  118. Codec ID : S_TEXT/UTF8

  119. Codec ID/Info : UTF-8 Plain Text

  120. Duration : 1 h 48 min

  121. Bit rate : 66 b/s

  122. Count of elements : 1783

  123. Stream size : 52.4 KiB (0%)

  124. Language : Danish

  125. Default : No

  126. Forced : No


  127. Text #7

  128. ID : 9

  129. Format : UTF-8

  130. Codec ID : S_TEXT/UTF8

  131. Codec ID/Info : UTF-8 Plain Text

  132. Duration : 1 h 48 min

  133. Bit rate : 71 b/s

  134. Count of elements : 1772

  135. Stream size : 56.4 KiB (0%)

  136. Language : German

  137. Default : No

  138. Forced : No


  139. Text #8

  140. ID : 10

  141. Format : UTF-8

  142. Codec ID : S_TEXT/UTF8

  143. Codec ID/Info : UTF-8 Plain Text

  144. Duration : 1 h 48 min

  145. Bit rate : 115 b/s

  146. Count of elements : 1847

  147. Stream size : 91.8 KiB (0%)

  148. Language : Greek

  149. Default : No

  150. Forced : No


  151. Text #9

  152. ID : 11

  153. Format : UTF-8

  154. Codec ID : S_TEXT/UTF8

  155. Codec ID/Info : UTF-8 Plain Text

  156. Duration : 1 h 48 min

  157. Bit rate : 62 b/s

  158. Count of elements : 1815

  159. Stream size : 49.3 KiB (0%)

  160. Language : Spanish

  161. Default : No

  162. Forced : No


  163. Text #10

  164. ID : 12

  165. Format : UTF-8

  166. Codec ID : S_TEXT/UTF8

  167. Codec ID/Info : UTF-8 Plain Text

  168. Duration : 1 h 48 min

  169. Bit rate : 67 b/s

  170. Count of elements : 1520

  171. Stream size : 53.7 KiB (0%)

  172. Language : Finnish

  173. Default : No

  174. Forced : No


  175. Text #11

  176. ID : 13

  177. Format : UTF-8

  178. Codec ID : S_TEXT/UTF8

  179. Codec ID/Info : UTF-8 Plain Text

  180. Duration : 1 h 48 min

  181. Bit rate : 66 b/s

  182. Count of elements : 1866

  183. Stream size : 52.7 KiB (0%)

  184. Language : fil

  185. Default : No

  186. Forced : No


  187. Text #12

  188. ID : 14

  189. Format : UTF-8

  190. Codec ID : S_TEXT/UTF8

  191. Codec ID/Info : UTF-8 Plain Text

  192. Duration : 1 h 48 min

  193. Bit rate : 66 b/s

  194. Count of elements : 1769

  195. Stream size : 53.0 KiB (0%)

  196. Language : French

  197. Default : No

  198. Forced : No


  199. Text #13

  200. ID : 15

  201. Format : UTF-8

  202. Codec ID : S_TEXT/UTF8

  203. Codec ID/Info : UTF-8 Plain Text

  204. Duration : 1 h 48 min

  205. Bit rate : 67 b/s

  206. Count of elements : 1856

  207. Stream size : 53.7 KiB (0%)

  208. Language : Hungarian

  209. Default : No

  210. Forced : No


  211. Text #14

  212. ID : 16

  213. Format : UTF-8

  214. Codec ID : S_TEXT/UTF8

  215. Codec ID/Info : UTF-8 Plain Text

  216. Duration : 1 h 48 min

  217. Bit rate : 66 b/s

  218. Count of elements : 1853

  219. Stream size : 52.9 KiB (0%)

  220. Language : Indonesian

  221. Default : No

  222. Forced : No


  223. Text #15

  224. ID : 17

  225. Format : UTF-8

  226. Codec ID : S_TEXT/UTF8

  227. Codec ID/Info : UTF-8 Plain Text

  228. Duration : 1 h 48 min

  229. Bit rate : 66 b/s

  230. Count of elements : 1913

  231. Stream size : 53.2 KiB (0%)

  232. Language : Italian

  233. Default : No

  234. Forced : No


  235. Text #16

  236. ID : 18

  237. Format : UTF-8

  238. Codec ID : S_TEXT/UTF8

  239. Codec ID/Info : UTF-8 Plain Text

  240. Duration : 1 h 48 min

  241. Bit rate : 61 b/s

  242. Count of elements : 1947

  243. Stream size : 49.2 KiB (0%)

  244. Language : Japanese

  245. Default : No

  246. Forced : No


  247. Text #17

  248. ID : 19

  249. Format : UTF-8

  250. Codec ID : S_TEXT/UTF8

  251. Codec ID/Info : UTF-8 Plain Text

  252. Duration : 1 h 48 min

  253. Bit rate : 67 b/s

  254. Count of elements : 1849

  255. Stream size : 53.8 KiB (0%)

  256. Language : Malay

  257. Default : No

  258. Forced : No


  259. Text #18

  260. ID : 20

  261. Format : UTF-8

  262. Codec ID : S_TEXT/UTF8

  263. Codec ID/Info : UTF-8 Plain Text

  264. Duration : 1 h 48 min

  265. Bit rate : 64 b/s

  266. Count of elements : 1512

  267. Stream size : 51.1 KiB (0%)

  268. Language : Norwegian Bokmal

  269. Default : No

  270. Forced : No


  271. Text #19

  272. ID : 21

  273. Format : UTF-8

  274. Codec ID : S_TEXT/UTF8

  275. Codec ID/Info : UTF-8 Plain Text

  276. Duration : 1 h 44 min

  277. Bit rate : 68 b/s

  278. Count of elements : 1543

  279. Stream size : 52.1 KiB (0%)

  280. Language : Dutch

  281. Default : No

  282. Forced : No


  283. Text #20

  284. ID : 22

  285. Format : UTF-8

  286. Codec ID : S_TEXT/UTF8

  287. Codec ID/Info : UTF-8 Plain Text

  288. Duration : 1 h 48 min

  289. Bit rate : 60 b/s

  290. Count of elements : 1787

  291. Stream size : 47.8 KiB (0%)

  292. Language : Polish

  293. Default : No

  294. Forced : No


  295. Text #21

  296. ID : 23

  297. Format : UTF-8

  298. Codec ID : S_TEXT/UTF8

  299. Codec ID/Info : UTF-8 Plain Text

  300. Duration : 1 h 48 min

  301. Bit rate : 68 b/s

  302. Count of elements : 1835

  303. Stream size : 54.3 KiB (0%)

  304. Language : Portuguese

  305. Default : No

  306. Forced : No


  307. Text #22

  308. ID : 24

  309. Format : UTF-8

  310. Codec ID : S_TEXT/UTF8

  311. Codec ID/Info : UTF-8 Plain Text

  312. Duration : 1 h 47 min

  313. Bit rate : 68 b/s

  314. Count of elements : 1838

  315. Stream size : 53.8 KiB (0%)

  316. Title : Brazilian

  317. Language : Portuguese

  318. Default : No

  319. Forced : No


  320. Text #23

  321. ID : 25

  322. Format : UTF-8

  323. Codec ID : S_TEXT/UTF8

  324. Codec ID/Info : UTF-8 Plain Text

  325. Duration : 1 h 48 min

  326. Bit rate : 75 b/s

  327. Count of elements : 1645

  328. Stream size : 59.9 KiB (0%)

  329. Language : Romanian

  330. Default : No

  331. Forced : No


  332. Text #24

  333. ID : 26

  334. Format : UTF-8

  335. Codec ID : S_TEXT/UTF8

  336. Codec ID/Info : UTF-8 Plain Text

  337. Duration : 1 h 48 min

  338. Bit rate : 109 b/s

  339. Count of elements : 1860

  340. Stream size : 87.1 KiB (0%)

  341. Language : Russian

  342. Default : No

  343. Forced : No


  344. Text #25

  345. ID : 27

  346. Format : UTF-8

  347. Codec ID : S_TEXT/UTF8

  348. Codec ID/Info : UTF-8 Plain Text

  349. Duration : 1 h 48 min

  350. Bit rate : 65 b/s

  351. Count of elements : 1601

  352. Stream size : 52.2 KiB (0%)

  353. Language : Swedish

  354. Default : No

  355. Forced : No


  356. Text #26

  357. ID : 28

  358. Format : UTF-8

  359. Codec ID : S_TEXT/UTF8

  360. Codec ID/Info : UTF-8 Plain Text

  361. Duration : 1 h 48 min

  362. Bit rate : 178 b/s

  363. Count of elements : 1889

  364. Stream size : 142 KiB (0%)

  365. Language : Thai

  366. Default : No

  367. Forced : No


  368. Text #27

  369. ID : 29

  370. Format : UTF-8

  371. Codec ID : S_TEXT/UTF8

  372. Codec ID/Info : UTF-8 Plain Text

  373. Duration : 1 h 48 min

  374. Bit rate : 67 b/s

  375. Count of elements : 1574

  376. Stream size : 53.3 KiB (0%)

  377. Language : Turkish

  378. Default : No

  379. Forced : No


  380. Text #28

  381. ID : 30

  382. Format : UTF-8

  383. Codec ID : S_TEXT/UTF8

  384. Codec ID/Info : UTF-8 Plain Text

  385. Duration : 1 h 48 min

  386. Bit rate : 109 b/s

  387. Count of elements : 1878

  388. Stream size : 86.9 KiB (0%)

  389. Language : Ukrainian

  390. Default : No

  391. Forced : No


  392. Text #29

  393. ID : 31

  394. Format : UTF-8

  395. Codec ID : S_TEXT/UTF8

  396. Codec ID/Info : UTF-8 Plain Text

  397. Duration : 1 h 48 min

  398. Bit rate : 99 b/s

  399. Count of elements : 1875

  400. Stream size : 78.8 KiB (0%)

  401. Language : Vietnamese

  402. Default : No

  403. Forced : No


  404. Text #30

  405. ID : 32

  406. Format : UTF-8

  407. Codec ID : S_TEXT/UTF8

  408. Codec ID/Info : UTF-8 Plain Text

  409. Duration : 1 h 48 min

  410. Bit rate : 75 b/s

  411. Count of elements : 1894

  412. Stream size : 60.3 KiB (0%)

  413. Title : Simplified

  414. Language : Chinese

  415. Default : No

  416. Forced : No


  417. Text #31

  418. ID : 33

  419. Format : UTF-8

  420. Codec ID : S_TEXT/UTF8

  421. Codec ID/Info : UTF-8 Plain Text

  422. Duration : 1 h 48 min

  423. Bit rate : 76 b/s

  424. Count of elements : 2066

  425. Stream size : 61.1 KiB (0%)

  426. Title : Traditional

  427. Language : Chinese

  428. Default : No

  429. Forced : No

复制代码

  


磁力链:
  • magnet:?xt=urn:btih:2AC44F24923F09E1E3B5F526047DBDBD0C978B10
上传的附件:
BT9527电影天堂 1、BT9527电影天堂提供的BT文件均来源于互联网抓取,只供网友学习交流、技术提升使用。
2、我们遵守BitTorrent点对点协议原则,任何版权问题请联系原资源发布商,我们不处理任何版权纠纷,谢谢!如有争议请联系邮箱:BT9527#hotmail.com(#换成@)
3、如果您发现某页面或地址有错误,请联系站长邮箱BT9527#hotmail.com(#换成@),我们会尽快处理。您的热心是对BT9527电影天堂最大的支持。
4、本站建议去正规影院观看电影以支持电影行业发展。
最新回复 (0)

你可以在 登录 or 注册 后,对此帖发表评论!

返回
发新帖