王者之路[中文字幕].Rise.2022.2160p.DSNP.WEB-DL.DDP5.1.Atmos.DV.MKV.x265-AKi 13.30GB

版主小s 1月前 160

◎译 名 王者之路 / 崛起 / Greek Freak / 希腊怪物

◎片 名 Rise

◎年 代 2022

◎产 地 美国

◎类 别 剧情 / 传记 / 运动

◎语 言 英语

◎上映日期 2022-06-24(美国网络)

◎IMDb链接 https://www.imdb.com/title/tt11242162/

◎豆瓣链接 https://movie.douban.com/subject/34881736/

◎导 演 阿金·奥莫托索 Akin Omotoso (id:1347945)

◎编 剧 阿拉什·阿梅尔 Arash Amel (id:1323618)

◎演 员 戴奥·奥柯奈伊 Dayo Okeniyi (id:1338290)

叶缇黛·拜达克 Yetide Badaki (id:1356029)

曼尼什·达亚尔 Manish Dayal (id:1259981)

泰勒·尼科斯 Taylor Nichols (id:1032340)

马克斯米利亚诺·赫尔南德斯 Maximiliano Hernández (id:1339359)

◎简 介

Disney+将开发一部关于篮球运动员扬尼斯·阿德托昆博的影片[希腊怪物](Greek Freak,暂译)。该片由阿拉什·阿梅尔([私人战争])操刀剧本,故事将围绕扬尼斯的早期生活及职业现状展开。扬尼斯为尼日利亚裔希腊籍篮球运动员,绰号为“希腊怪物”,司职大前锋,现效力于NBA的密尔沃基雄鹿队。

  1. Video

  2. ID : 1

  3. Format : HEVC

  4. Format/Info : High Efficiency Video Coding

  5. Format profile : Main 10@L5@High

  6. HDR format : Dolby Vision, Version 1.0, dvhe.05.06, BL+RPU

  7. Codec ID : V_MPEGH/ISO/HEVC

  8. Duration : 1 h 51 min

  9. Bit rate : 16.3 Mb/s

  10. Width : 3 840 pixels

  11. Height : 2 160 pixels

  12. Display aspect ratio : 16:9

  13. Frame rate mode : Constant

  14. Frame rate : 24.000 FPS

  15. Color space : YUV

  16. Chroma subsampling : 4:2:0

  17. Bit depth : 10 bits

  18. Bits/(Pixel*Frame) : 0.082

  19. Stream size : 12.7 GiB (95%)

  20. Default : Yes

  21. Forced : No

  22. Color range : Full


  23. Audio

  24. ID : 2

  25. Format : E-AC-3 JOC

  26. Format/Info : Enhanced AC-3 with Joint Object Coding

  27. Commercial name : Dolby Digital Plus with Dolby Atmos

  28. Codec ID : A_EAC3

  29. Duration : 1 h 51 min

  30. Bit rate mode : Constant

  31. Bit rate : 768 kb/s

  32. Channel(s) : 6 channels

  33. Channel layout : L R C LFE Ls Rs

  34. Sampling rate : 48.0 kHz

  35. Frame rate : 31.250 FPS (1536 SPF)

  36. Compression mode : Lossy

  37. Stream size : 611 MiB (4%)

  38. Title : English

  39. Language : English

  40. Service kind : Complete Main

  41. Default : No

  42. Forced : No

  43. Complexity index : 16

  44. Number of dynamic objects : 15

  45. Bed channel count : 1 channel

  46. Bed channel configuration : LFE


  47. Text #1

  48. ID : 3

  49. Format : UTF-8

  50. Codec ID : S_TEXT/UTF8

  51. Codec ID/Info : UTF-8 Plain Text

  52. Duration : 1 h 50 min

  53. Bit rate : 56 b/s

  54. Count of elements : 1445

  55. Stream size : 45.4 KiB (0%)

  56. Title : English

  57. Language : English

  58. Default : Yes

  59. Forced : No


  60. Text #2

  61. ID : 4

  62. Format : UTF-8

  63. Codec ID : S_TEXT/UTF8

  64. Codec ID/Info : UTF-8 Plain Text

  65. Duration : 1 h 50 min

  66. Bit rate : 56 b/s

  67. Count of elements : 1445

  68. Stream size : 45.4 KiB (0%)

  69. Title : English (SDH)

  70. Language : English

  71. Default : No

  72. Forced : No


  73. Text #3

  74. ID : 5

  75. Format : UTF-8

  76. Codec ID : S_TEXT/UTF8

  77. Codec ID/Info : UTF-8 Plain Text

  78. Duration : 1 h 50 min

  79. Bit rate : 40 b/s

  80. Count of elements : 1124

  81. Stream size : 32.6 KiB (0%)

  82. Title : Chinese Simplified

  83. Language : Chinese

  84. Default : No

  85. Forced : No


  86. Text #4

  87. ID : 6

  88. Format : UTF-8

  89. Codec ID : S_TEXT/UTF8

  90. Codec ID/Info : UTF-8 Plain Text

  91. Duration : 1 h 50 min

  92. Bit rate : 43 b/s

  93. Count of elements : 1124

  94. Stream size : 35.2 KiB (0%)

  95. Title : Chinese Traditional

  96. Language : Chinese

  97. Default : No

  98. Forced : No


  99. Text #5

  100. ID : 7

  101. Format : UTF-8

  102. Codec ID : S_TEXT/UTF8

  103. Codec ID/Info : UTF-8 Plain Text

  104. Duration : 1 h 50 min

  105. Bit rate : 38 b/s

  106. Count of elements : 1077

  107. Stream size : 31.6 KiB (0%)

  108. Title : Czech

  109. Language : Czech

  110. Default : No

  111. Forced : No


  112. Text #6

  113. ID : 8

  114. Format : UTF-8

  115. Codec ID : S_TEXT/UTF8

  116. Codec ID/Info : UTF-8 Plain Text

  117. Duration : 1 h 50 min

  118. Bit rate : 40 b/s

  119. Count of elements : 888

  120. Stream size : 33.2 KiB (0%)

  121. Title : Danish

  122. Language : Danish

  123. Default : No

  124. Forced : No


  125. Text #7

  126. ID : 9

  127. Format : UTF-8

  128. Codec ID : S_TEXT/UTF8

  129. Codec ID/Info : UTF-8 Plain Text

  130. Duration : 1 h 50 min

  131. Bit rate : 37 b/s

  132. Count of elements : 916

  133. Stream size : 30.3 KiB (0%)

  134. Title : Dutch

  135. Language : Dutch

  136. Default : No

  137. Forced : No


  138. Text #8

  139. ID : 10

  140. Format : UTF-8

  141. Codec ID : S_TEXT/UTF8

  142. Codec ID/Info : UTF-8 Plain Text

  143. Duration : 1 h 50 min

  144. Bit rate : 40 b/s

  145. Count of elements : 1045

  146. Stream size : 33.2 KiB (0%)

  147. Title : Finnish

  148. Language : Finnish

  149. Default : No

  150. Forced : No


  151. Text #9

  152. ID : 11

  153. Format : UTF-8

  154. Codec ID : S_TEXT/UTF8

  155. Codec ID/Info : UTF-8 Plain Text

  156. Duration : 1 h 50 min

  157. Bit rate : 43 b/s

  158. Count of elements : 1068

  159. Stream size : 34.9 KiB (0%)

  160. Title : French

  161. Language : French

  162. Default : No

  163. Forced : No


  164. Text #10

  165. ID : 12

  166. Format : UTF-8

  167. Codec ID : S_TEXT/UTF8

  168. Codec ID/Info : UTF-8 Plain Text

  169. Duration : 1 h 50 min

  170. Bit rate : 40 b/s

  171. Count of elements : 1040

  172. Stream size : 33.0 KiB (0%)

  173. Title : German

  174. Language : German

  175. Default : No

  176. Forced : No


  177. Text #11

  178. ID : 13

  179. Format : UTF-8

  180. Codec ID : S_TEXT/UTF8

  181. Codec ID/Info : UTF-8 Plain Text

  182. Duration : 1 h 50 min

  183. Bit rate : 72 b/s

  184. Count of elements : 1099

  185. Stream size : 58.4 KiB (0%)

  186. Title : Greek

  187. Language : Greek

  188. Default : No

  189. Forced : No


  190. Text #12

  191. ID : 14

  192. Format : UTF-8

  193. Codec ID : S_TEXT/UTF8

  194. Codec ID/Info : UTF-8 Plain Text

  195. Duration : 1 h 50 min

  196. Bit rate : 44 b/s

  197. Count of elements : 1094

  198. Stream size : 36.2 KiB (0%)

  199. Title : Hungarian

  200. Language : Hungarian

  201. Default : No

  202. Forced : No


  203. Text #13

  204. ID : 15

  205. Format : UTF-8

  206. Codec ID : S_TEXT/UTF8

  207. Codec ID/Info : UTF-8 Plain Text

  208. Duration : 1 h 50 min

  209. Bit rate : 41 b/s

  210. Count of elements : 1075

  211. Stream size : 33.9 KiB (0%)

  212. Title : Italian

  213. Language : Italian

  214. Default : No

  215. Forced : No


  216. Text #14

  217. ID : 16

  218. Format : UTF-8

  219. Codec ID : S_TEXT/UTF8

  220. Codec ID/Info : UTF-8 Plain Text

  221. Duration : 1 h 50 min

  222. Bit rate : 36 b/s

  223. Count of elements : 1057

  224. Stream size : 29.6 KiB (0%)

  225. Title : Japanese

  226. Language : Japanese

  227. Default : No

  228. Forced : No


  229. Text #15

  230. ID : 17

  231. Format : UTF-8

  232. Codec ID : S_TEXT/UTF8

  233. Codec ID/Info : UTF-8 Plain Text

  234. Duration : 1 h 50 min

  235. Bit rate : 50 b/s

  236. Count of elements : 1110

  237. Stream size : 40.5 KiB (0%)

  238. Title : Korean

  239. Language : Korean

  240. Default : No

  241. Forced : No


  242. Text #16

  243. ID : 18

  244. Format : UTF-8

  245. Codec ID : S_TEXT/UTF8

  246. Codec ID/Info : UTF-8 Plain Text

  247. Duration : 1 h 50 min

  248. Bit rate : 39 b/s

  249. Count of elements : 958

  250. Stream size : 31.7 KiB (0%)

  251. Title : Norwegian

  252. Language : Norwegian

  253. Default : No

  254. Forced : No


  255. Text #17

  256. ID : 19

  257. Format : UTF-8

  258. Codec ID : S_TEXT/UTF8

  259. Codec ID/Info : UTF-8 Plain Text

  260. Duration : 1 h 50 min

  261. Bit rate : 38 b/s

  262. Count of elements : 1040

  263. Stream size : 31.2 KiB (0%)

  264. Title : Polish

  265. Language : Polish

  266. Default : No

  267. Forced : No


  268. Text #18

  269. ID : 20

  270. Format : UTF-8

  271. Codec ID : S_TEXT/UTF8

  272. Codec ID/Info : UTF-8 Plain Text

  273. Duration : 1 h 50 min

  274. Bit rate : 42 b/s

  275. Count of elements : 1081

  276. Stream size : 34.4 KiB (0%)

  277. Title : Portuguese

  278. Language : Portuguese

  279. Default : No

  280. Forced : No


  281. Text #19

  282. ID : 21

  283. Format : UTF-8

  284. Codec ID : S_TEXT/UTF8

  285. Codec ID/Info : UTF-8 Plain Text

  286. Duration : 1 h 50 min

  287. Bit rate : 39 b/s

  288. Count of elements : 1048

  289. Stream size : 31.6 KiB (0%)

  290. Title : Brazilian Portuguese

  291. Language : Portuguese

  292. Default : No

  293. Forced : No


  294. Text #20

  295. ID : 22

  296. Format : UTF-8

  297. Codec ID : S_TEXT/UTF8

  298. Codec ID/Info : UTF-8 Plain Text

  299. Duration : 1 h 50 min

  300. Bit rate : 39 b/s

  301. Count of elements : 940

  302. Stream size : 31.9 KiB (0%)

  303. Title : Romanian

  304. Language : Romanian

  305. Default : No

  306. Forced : No


  307. Text #21

  308. ID : 23

  309. Format : UTF-8

  310. Codec ID : S_TEXT/UTF8

  311. Codec ID/Info : UTF-8 Plain Text

  312. Duration : 1 h 50 min

  313. Bit rate : 39 b/s

  314. Count of elements : 1070

  315. Stream size : 31.7 KiB (0%)

  316. Title : Slovak

  317. Language : Slovak

  318. Default : No

  319. Forced : No


  320. Text #22

  321. ID : 24

  322. Format : UTF-8

  323. Codec ID : S_TEXT/UTF8

  324. Codec ID/Info : UTF-8 Plain Text

  325. Duration : 1 h 50 min

  326. Bit rate : 40 b/s

  327. Count of elements : 953

  328. Stream size : 32.9 KiB (0%)

  329. Title : Spanish

  330. Language : Spanish

  331. Default : No

  332. Forced : No


  333. Text #23

  334. ID : 25

  335. Format : UTF-8

  336. Codec ID : S_TEXT/UTF8

  337. Codec ID/Info : UTF-8 Plain Text

  338. Duration : 1 h 50 min

  339. Bit rate : 41 b/s

  340. Count of elements : 1053

  341. Stream size : 33.3 KiB (0%)

  342. Title : European Spanish

  343. Language : Spanish

  344. Default : No

  345. Forced : No


  346. Text #24

  347. ID : 26

  348. Format : UTF-8

  349. Codec ID : S_TEXT/UTF8

  350. Codec ID/Info : UTF-8 Plain Text

  351. Duration : 1 h 50 min

  352. Bit rate : 42 b/s

  353. Count of elements : 1094

  354. Stream size : 34.2 KiB (0%)

  355. Title : Swedish

  356. Language : Swedish

  357. Default : No

  358. Forced : No


  359. Text #25

  360. ID : 27

  361. Format : UTF-8

  362. Codec ID : S_TEXT/UTF8

  363. Codec ID/Info : UTF-8 Plain Text

  364. Duration : 1 h 50 min

  365. Bit rate : 42 b/s

  366. Count of elements : 989

  367. Stream size : 34.2 KiB (0%)

  368. Title : Turkish

  369. Language : Turkish

  370. Default : No

  371. Forced : No

复制代码

  


磁力链:
  • magnet:?xt=urn:btih:81D6BF8BDDB5C4EAF37757B3C78591DF1C83878A
上传的附件:
BT9527电影天堂 1、BT9527电影天堂提供的BT文件均来源于互联网抓取,只供网友学习交流、技术提升使用。
2、我们遵守BitTorrent点对点协议原则,任何版权问题请联系原资源发布商,我们不处理任何版权纠纷,谢谢!如有争议请联系邮箱:BT9527#hotmail.com(#换成@)
3、如果您发现某页面或地址有错误,请联系站长邮箱BT9527#hotmail.com(#换成@),我们会尽快处理。您的热心是对BT9527电影天堂最大的支持。
4、本站建议去正规影院观看电影以支持电影行业发展。
最新回复 (0)

你可以在 登录 or 注册 后,对此帖发表评论!

返回
发新帖