银湖之底[中文字幕].Under.the.Silver.Lake.2018.1080p.BluRay.DTS.x265-10bit-ENTHD 5.81GB

版主小s 1月前 150

◎标 题 银湖之底

◎译 名 银湖之下

◎片 名 Under the Silver Lake

◎年 代 2018

◎产 地 美国

◎类 别 剧情 / 喜剧 / 惊悚 / 犯罪

◎语 言 英语

◎上映日期 2018-05-15(戛纳电影节) / 2019-04-19(美国)

◎IMDb评分 6.5/10 (38133人评价)

◎IMDb链接 https://www.imdb.com/title/tt5691670/

◎豆瓣评分 6.5/10 (9973人评价)

◎豆瓣链接 https://movie.douban.com/subject/26786317/

◎片 长 139分钟

◎导 演 大卫·罗伯特·米切尔 David Robert Mitchell

◎编 剧 大卫·罗伯特·米切尔 David Robert Mitchell

◎演 员 安德鲁·加菲尔德 Andrew Garfield

狄波拉·盖夫娜 Deborah Geffner

丽莉·吉欧 Riley Keough

瑞琪·琳德赫姆 Riki Lindhome

克里斯·加恩 Chris Gann

考莉·埃尔南德斯 Callie Hernandez

杰西卡·马金森 Jessica Makinson

丽兹·科菲 Izzie Coffey

斯凯·埃洛巴 Sky Elobar

杰克逊·江恩 Jackson Gann

瑞克斯·林恩 Rex Linn

托弗·戈瑞斯 Topher Grace

佐莎·马梅特 Zosia Mamet

安娜贝尔·德克斯特-琼斯 Annabelle Dexter-Jones

卢克·拜恩斯 Luke Baines

艾莉·麦克唐纳 Allie MacDonald

维多利亚·布鲁诺 Victoria Bruno

格蕾丝·范帕滕 Grace Van Patten

吉米·辛普森 Jimmi Simpson

西德妮·斯威尼 Sydney Sweeney

派特里克·费斯克勒 Patrick Fischler

莎莫·比施尔 Summer Bishil

伊丽莎白·辛克勒 Elizabeth Hinkler

梅根·史蒂文森 Megan Stevenson

达瑞尔·切尔尼 Darrel Cherney

波比·萨尔沃·门努兹 Bobbi Salvör Menuez

斯蒂芬妮·摩尔 Stephanie Moore

◎标 签 美国 / 悬疑 / 2018 / 惊悚 / 犯罪 / 剧情 / 黑色幽默 / 恐怖

◎简 介

导演大卫·罗伯特·米切尔新作《银湖之底》,讲述一个发生在现代洛杉矶的犯罪惊悚黑色故事,33岁的Sam(安德鲁·加菲尔德 Andrew Garfield 饰)住在洛杉矶,虽然没有正职,却依然渴望出人头地。当年轻且神秘的女邻居Sarah(丽莉·克亚芙 Riley Keough 饰)突然失踪之后,Sam决定寻找这个女人,并在城里展开了一段调查。这段调查使他不得不直面天使之城最为黑面的一面,理清与丑闻和阴谋有关的失踪及神秘谋杀。

  1. ##### MediaInfo ######

  2. General

  3. Unique ID : 101772343721361140425643127864249345737 (0x4C90A3F31CA8C9C918B668CE6B40E6C9)

  4. Complete name : Under.the.Silver.Lake.2018.1080p.BluRay.DTS.x265-10bit-ENTHD.mkv

  5. Format : Matroska

  6. Format version : Version 4

  7. File size : 5.81 GiB

  8. Duration : 2 h 19 min

  9. Overall bit rate : 5 963 kb/s

  10. Movie name : Under the Silver Lake 2018 1080p BluRay DTS x265-10bit-HDS

  11. Encoded date : UTC 2022-06-24 01:51:55

  12. Writing application : mkvmerge v67.0.0 ('Under Stars') 64-bit

  13. Writing library : libebml v1.4.2 + libmatroska v1.6.4

  14. Video

  15. ID : 1

  16. Format : HEVC

  17. Format/Info : High Efficiency Video Coding

  18. Format profile : Main 10@L5.1@High

  19. Codec ID : V_MPEGH/ISO/HEVC

  20. Duration : 2 h 19 min

  21. Bit rate : 4 427 kb/s

  22. Width : 1 920 pixels

  23. Height : 800 pixels

  24. Display aspect ratio : 2.40:1

  25. Frame rate mode : Constant

  26. Frame rate : 23.976 (24000/1001/53354) FPS

  27. Color space : YUV

  28. Chroma subsampling : 4:2:0

  29. Bit depth : 10 bits

  30. Bits/(Pixel*Frame) : 0.120

  31. Stream size : 4.31 GiB (74%)

  32. Title : meyu@HDSky

  33. Writing library : x265 - H.265/HEVC codec

  34. Default : Yes

  35. Forced : No

  36. Audio

  37. ID : 2

  38. Format : DTS

  39. Format/Info : Digital Theater Systems

  40. Codec ID : A_DTS

  41. Duration : 2 h 19 min

  42. Bit rate mode : Constant

  43. Bit rate : 1 509 kb/s

  44. Channel(s) : 6 channels

  45. Channel layout : C L R Ls Rs LFE

  46. Sampling rate : 48.0 kHz

  47. Frame rate : 93.750 FPS (512 SPF)

  48. Bit depth : 24 bits

  49. Compression mode : Lossy

  50. Stream size : 1.47 GiB (25%)

  51. Title : English

  52. Language : English

  53. Default : Yes

  54. Forced : No

  55. Text #1

  56. ID : 3

  57. Format : PGS

  58. Muxing mode : zlib

  59. Codec ID : S_HDMV/PGS

  60. Codec ID/Info : Picture based subtitle format used on BDs/HD-DVDs

  61. Duration : 2 h 13 min

  62. Bit rate : 23.9 kb/s

  63. Count of elements : 2347

  64. Stream size : 22.8 MiB (0%)

  65. Title : CHS

  66. Language : Chinese

  67. Default : Yes

  68. Forced : No

  69. Text #2

  70. ID : 4

  71. Format : PGS

  72. Muxing mode : zlib

  73. Codec ID : S_HDMV/PGS

  74. Codec ID/Info : Picture based subtitle format used on BDs/HD-DVDs

  75. Duration : 2 h 13 min

  76. Bit rate : 24.5 kb/s

  77. Count of elements : 2347

  78. Stream size : 23.4 MiB (0%)

  79. Title : CHT

  80. Language : Chinese

  81. Default : Yes

  82. Forced : No

  83. Menu

  84. 00:00:00.000 : en:第 01 章

  85. 00:09:17.015 : en:第 02 章

  86. 00:18:07.169 : en:第 03 章

  87. 00:28:09.897 : en:第 04 章

  88. 00:37:20.613 : en:第 05 章

  89. 00:44:13.818 : en:第 06 章

  90. 00:54:04.158 : en:第 07 章

  91. 01:04:16.102 : en:第 08 章

  92. 01:13:33.242 : en:第 09 章

  93. 01:22:21.854 : en:第 10 章

  94. 01:29:52.846 : en:第 11 章

  95. 01:36:43.798 : en:第 12 章

  96. 01:43:59.859 : en:第 13 章

  97. 01:54:45.712 : en:第 14 章

  98. 02:07:37.316 : en:第 15 章


复制代码


磁力链:
  • magnet:?xt=urn:btih:7CD47FE6789EBC42396F7A682091496C1B55D947
上传的附件:
BT9527电影天堂 1、BT9527电影天堂提供的BT文件均来源于互联网抓取,只供网友学习交流、技术提升使用。
2、我们遵守BitTorrent点对点协议原则,任何版权问题请联系原资源发布商,我们不处理任何版权纠纷,谢谢!如有争议请联系邮箱:BT9527#hotmail.com(#换成@)
3、如果您发现某页面或地址有错误,请联系站长邮箱BT9527#hotmail.com(#换成@),我们会尽快处理。您的热心是对BT9527电影天堂最大的支持。
4、本站建议去正规影院观看电影以支持电影行业发展。
最新回复 (0)

你可以在 登录 or 注册 后,对此帖发表评论!

返回
发新帖