撩乱的裸舞曲[简繁字幕].Aroused.by.Gymnopedies.2016.BluRay.1080p.x265.10bit-MiniHD 2.35GB

版主小s 1月前 1289

◎标 题 撩乱的裸舞曲

◎译 名 裸舞狂情 / Aroused by Gymnopedies

◎片 名 ジムノペディに乱れる

◎年 代 2016

◎产 地 日本

◎类 别 情色

◎语 言 日语

◎上映日期 2016-11-26(日本)

◎IMDb评分 5.5/10 (253人评价)

◎IMDb链接 https://www.imdb.com/title/tt5999588/

◎豆瓣评分 6.0/10 (3481人评价)

◎豆瓣链接 https://movie.douban.com/subject/26872550/

◎片 长 81分钟

◎导 演 行定勋 Isao Yukisada

◎编 剧 行定勋 Isao Yukisada

堀泉杏 Anne Horiizumi

◎演 员 板尾创路 Itsuji Itao

芦那堇 Sumire Ashina

冈村泉 Izumi Okamura

木岛法子 Noriko Kijima

◎标 签 情色 / 日本电影 / 日本 / 粉红电影 / 2016 / 日影 / 粉红映画 / 日活

◎简 介

电影公司「日活」创业百年,最具代表性的一个品牌,是在七、 八十年代风靡一时的「粉红映画」(日文叫Roman Porno,海外称之为Pink Movie),亦即是浪漫化的成人电影。今年适逢「粉红映画」诞生四十五周年,「日活」特别筹划了「Roman Porno Reboot」计划,找来园子温、行定勳、中田秀夫、盐田明彦、白石和弥五位名导操刀,各拍一部粉红片。五人要跟足过往的游戏规则:每十分钟要有一场情慾戏、片长必须在七十至八十分钟之间、一律只有很低的製作费、要一星期内完成拍摄,其他一切自由发挥。结果证明五位导演不但玩得起,而且还玩得极有一手。

盐田的《湿濡的女人》最先曝光,重新演绎「粉红」经典《湿濡的恋人们》,讲野性少女在海边故意湿身,然后贱价卖身给路过的男人。白石执导的《雌猫们》同样向经典《雌猫们之夜》致敬,新版搬到池袋街头上演,讲在网吧打趸的难民、单亲妈妈和不育人妻在夜间浪荡的性活动。行定勳的《撩乱的裸舞曲》则是原创故事,谐星板尾创路演脑闭塞导演,陷入了女色陷阱,搞到身败名裂。《午夜凶铃》导演中田秀夫初战成人世界,打动了九十后女优飞鸟凛全裸演出女同志故事《白百合》。向来出位的园子温就尽展其反叛本色,以毒攻毒,用色情反色情拍了《Antiporno》,找来前AKB成员富手麻妙首次全裸主演。

「粉红映画」之所以留名几十年,是因为「淫」得有道,成本低但剧本扎实,而且是当时年轻新导磨练技艺的修罗场,《礼仪师》奥斯卡导演泷田洋二郎、《谈谈情,跳跳舞》的周防正行、《死亡笔记》的金子修介、《后乐园》已故导演森田芳光等大导出道时都拍过粉红片。停产了廿八年的粉红系列今次一口气推出五片,别具意义,将陆续于十一月底起在日本上映。

  1. ##### MediaInfo ######

  2. General

  3. Unique ID : 38458862228459496306389294736896284696 (0x1CEEE84DF0E5A008691D5AF36029D818)

  4. Complete name : Aroused.by.Gymnopedies.2016.BluRay.1080p.x265.10bit-MiniHD.mkv

  5. Format : Matroska

  6. Format version : Version 4

  7. File size : 2.35 GiB

  8. Duration : 1 h 22 min

  9. Overall bit rate : 4 065 kb/s

  10. Encoded date : UTC 2018-02-08 05:34:18

  11. Writing application : mkvmerge v20.0.0 ('I Am The Sun') 64-bit

  12. Writing library : libebml v1.3.5 + libmatroska v1.4.8

  13. Video

  14. ID : 1

  15. Format : HEVC

  16. Format/Info : High Efficiency Video Coding

  17. Format profile : Main 10@L4@High

  18. Codec ID : V_MPEGH/ISO/HEVC

  19. Duration : 1 h 22 min

  20. Bit rate : 3 400 kb/s

  21. Width : 1 920 pixels

  22. Height : 804 pixels

  23. Display aspect ratio : 2.40:1

  24. Frame rate mode : Constant

  25. Frame rate : 23.976 (24000/1001/53354) FPS

  26. Color space : YUV

  27. Chroma subsampling : 4:2:0

  28. Bit depth : 10 bits

  29. Bits/(Pixel*Frame) : 0.092

  30. Stream size : 1.97 GiB (84%)

  31. Writing library : x265 2.6+37-1949157705ce:[Windows][MSVC 1900][64 bit] 10bit

  32. Encoding settings : cpuid=533541173503 / frame-threads=2 / numa-pools=4 / wpp / no-pmode / no-pme / no-psnr / no-ssim / log-level=2 / input-csp=1 / input-res=1920x804 / interlace=0 / total-frames=119209 / level-idc=0 / high-tier=1 / uhd-bd=0 / ref=5 / no-allow-non-conformance / no-repeat-headers / annexb / no-aud / no-hrd / info / hash=0 / no-temporal-layers / no-open-gop / min-keyint=1 / keyint=360 / gop-lookahead=0 / bframes=8 / b-adapt=2 / b-pyramid / bframe-bias=0 / rc-lookahead=60 / lookahead-slices=4 / NTMzNTQ=uuDQuD2mJt9fsCf / scenecut=40 / radl=0 / no-intra-refresh / ctu=32 / min-cu-size=8 / no-rect / no-amp / max-tu-size=16 / tu-inter-depth=2 / tu-intra-depth=2 / limit-tu=4 / rdoq-level=1 / dynamic-rd=0.00 / ssim-rd / signhide / no-tskip / nr-intra=0 / nr-inter=0 / no-constrained-intra / no-strong-intra-smoothing / max-merge=3 / limit-refs=2 / limit-modes / me=3 / subme=5 / merange=25 / temporal-mvp / weightp / weightb / no-analyze-src-pics / deblock=-1:-1 / no-sao / no-sao-non-deblock / rd=4 / no-early-skip / rskip / no-fast-intra / no-tskip-fast / no-cu-lossless / b-intra / no-splitrd-skip / rdpenalty=1 / psy-rd=0.00 / psy-rdoq=2.00 / no-rd-refine / no-lossless / cbqpoffs=-2 / crqpoffs=-2 / rc=crf / crf=16.0 / qcomp=0.65 / qpstep=4 / stats-write=0 / stats-read=0 / vbv-maxrate=28000 / vbv-bufsize=30000 / vbv-init=0.9 / crf-max=0.0 / crf-min=0.0 / ipratio=1.40 / pbratio=1.30 / aq-mode=2 / aq-strength=0.90 / cutree / zone-count=0 / no-strict-cbr / qg-size=16 / no-rc-grain / qpmax=69 / qpmin=0 / no-const-vbv / sar=0 / overscan=0 / videoformat=5 / range=0 / colorprim=1 / transfer=2 / colormatrix=2 / chromaloc=0 / display-window=0 / max-cll=0,0 / min-luma=0 / max-luma=1023 / log2-max-poc-lsb=8 / vui-timing-info / vui-hrd-info / slices=1 / no-opt-qp-pps / no-opt-ref-list-length-pps / no-multi-pass-opt-rps / scenecut-bias=0.05 / no-opt-cu-delta-qp / no-aq-motion / no-hdr / no-hdr-opt / no-dhdr10-opt / analysis-reuse-level=5 / scale-factor=0 / refine-intra=0 / refine-inter=0 / refine-mv=0 / no-limit-sao / ctu-info=0 / no-lowpass-dct / refine-mv-type=0 / copy-pic=1

  33. Default : Yes

  34. Forced : No

  35. Color range : Limited

  36. Color primaries : BT.709

  37. Audio

  38. ID : 2

  39. Format : AC-3

  40. Format/Info : Audio Coding 3

  41. Commercial name : Dolby Digital

  42. Codec ID : A_AC3

  43. Duration : 1 h 22 min

  44. Bit rate mode : Constant

  45. Bit rate : 640 kb/s

  46. Channel(s) : 6 channels

  47. Channel layout : L R C LFE Ls Rs

  48. Sampling rate : 48.0 kHz

  49. Frame rate : 31.250 FPS (1536 SPF)

  50. Compression mode : Lossy

  51. Stream size : 379 MiB (16%)

  52. Language : Japanese

  53. Service kind : Complete Main

  54. Default : Yes

  55. Forced : No

  56. Text #1

  57. ID : 3

  58. Format : PGS

  59. Muxing mode : zlib

  60. Codec ID : S_HDMV/PGS

  61. Codec ID/Info : Picture based subtitle format used on BDs/HD-DVDs

  62. Duration : 1 h 14 min

  63. Bit rate : 20.4 kb/s

  64. Count of elements : 1455

  65. Stream size : 10.9 MiB (0%)

  66. Title : 简体中文

  67. Language : Chinese

  68. Default : Yes

  69. Forced : No

  70. Text #2

  71. ID : 4

  72. Format : PGS

  73. Muxing mode : zlib

  74. Codec ID : S_HDMV/PGS

  75. Codec ID/Info : Picture based subtitle format used on BDs/HD-DVDs

  76. Duration : 1 h 14 min

  77. Bit rate : 20.7 kb/s

  78. Count of elements : 1455

  79. Stream size : 11.0 MiB (0%)

  80. Title : 繁体中文

  81. Language : Chinese

  82. Default : No

  83. Forced : No

  84. Menu

  85. 00:00:00.000 : en:00:00:00.000

  86. 00:18:32.153 : en:00:18:32.153

  87. 00:42:40.933 : en:00:42:40.933

  88. 00:53:18.195 : en:00:53:18.195

  89. 01:06:39.996 : en:01:06:39.996

  90. 01:14:14.450 : en:01:14:14.450


复制代码


磁力链:
  • magnet:?xt=urn:btih:307FB3DCD81D998AD2C62405DA9BC7E841419960
上传的附件:
BT9527电影天堂 1、BT9527电影天堂提供的BT文件均来源于互联网抓取,只供网友学习交流、技术提升使用。
2、我们遵守BitTorrent点对点协议原则,任何版权问题请联系原资源发布商,我们不处理任何版权纠纷,谢谢!如有争议请联系邮箱:BT9527#hotmail.com(#换成@)
3、如果您发现某页面或地址有错误,请联系站长邮箱BT9527#hotmail.com(#换成@),我们会尽快处理。您的热心是对BT9527电影天堂最大的支持。
4、本站建议去正规影院观看电影以支持电影行业发展。
最新回复 (0)

你可以在 登录 or 注册 后,对此帖发表评论!

返回
发新帖