有希望的男人[简繁英字幕].Muzi.v.Nadeji.2011.BluRay.1080p.x265.10bit-MiniHD 4.41GB

版主小s 10天前 115

✔资源类型:暂未分类   ✔电影年份:2011   ✔电影地区:其他   ✔电影分类:剧情

◎标  题 有希望的男人
◎译  名 Muzi v nadeji / Men in Hope
◎片  名 Muži v naději
◎年  代 2011
◎产  地 捷克
◎类  别 剧情 / 喜剧
◎语  言 捷克语
◎上映日期 2011-08-25(捷克)
◎IMDb评分 7/10 (4055人评价)
◎IMDb链接 https://www.imdb.com/title/tt2051941/
◎豆瓣评分 7.6/10 (36965人评价)
◎豆瓣链接 https://movie.douban.com/subject/6845529/
◎片  长 110分钟
◎导  演 伊力·维伊德雷克 Jirí Vejdelek
◎编  剧 伊力·维伊德雷克 Jirí Vejdelek
◎演  员 杰里·马哈萨克 Jirí Machácek
       波莱克·波利夫卡 Bolek Polívka
       彼得拉·赫雷比科娃 Petra Hrebícková
       维卡·克里克斯 Vica Kerekes
       西蒙娜·史达索娃 Simona Stašová

◎简  介
  都说忠诚和信任是维持婚姻的重要纽带,但卢德福(波莱克·波利夫卡 Bolek Polívka 饰)觉得这简直是一派胡言,在他的婚姻观里,不忠和出轨不仅能够增加婚姻里的趣味,更能给妻子制造危机感,令两人的关系因危机感而充满情趣。不知是巧合还是幸运,贯彻了这一套“歪理”的卢德 福自己的婚姻一直以来都幸福美满,这更让他坚信自己是正确的。                                    
                                卢德福的女儿爱丽丝(彼得拉·赫雷比科娃 Petra Hrebícková 饰)即将和名叫安德鲁(吉日·马察科 Jirí Machácek 饰)的男人步入婚姻的殿堂,让卢德福感到失望的是,安德鲁竟然打算当一个常人眼中的“模范丈夫”,心急如焚的卢德福决定从自己的女儿下手,希望爱丽丝能够向自己学习,学习他那一套维持婚姻之道。
  1. ##### MediaInfo ######
  2. General
  3. Unique ID                                : 25270095084277206260832020411448678570 (0x1302D7E154CDAC4876F1F9FC2995D8AA)
  4. Complete name                            : Muzi.v.Nadeji.2011.BluRay.1080p.x265.10bit-MiniHD.mkv
  5. Format                                   : Matroska
  6. Format version                           : Version 4
  7. File size                                : 4.41 GiB
  8. Duration                                 : 1 h 50 min
  9. Overall bit rate                         : 5 727 kb/s
  10. Encoded date                             : UTC 2018-01-15 06:55:34
  11. Writing application                      : mkvmerge v19.0.0 ('Brave Captain') 64-bit
  12. Writing library                          : libebml v1.3.5 + libmatroska v1.4.8
  13. Video
  14. ID                                       : 1
  15. Format                                   : HEVC
  16. Format/Info                              : High Efficiency Video Coding
  17. Format profile                           : Main 10@L4@High
  18. Codec ID                                 : V_MPEGH/ISO/HEVC
  19. Duration                                 : 1 h 50 min
  20. Bit rate                                 : 5 000 kb/s
  21. Width                                    : 1 920 pixels
  22. Height                                   : 1 080 pixels
  23. Display aspect ratio                     : 16:9
  24. Frame rate mode                          : Constant
  25. Frame rate                               : 25.000 FPS
  26. Color space                              : YUV
  27. Chroma subsampling                       : 4:2:0
  28. Bit depth                                : 10 bits
  29. Bits/(Pixel*Frame)                       : 0.096
  30. Stream size                              : 3.85 GiB (87%)
  31. Title                                    : Video.hevc
  32. Default                                  : Yes
  33. Forced                                   : No
  34. Color range                              : Limited
  35. Color primaries                          : BT.709
  36. Audio
  37. ID                                       : 2
  38. Format                                   : AC-3
  39. Format/Info                              : Audio Coding 3
  40. Commercial name                          : Dolby Digital
  41. Codec ID                                 : A_AC3
  42. Duration                                 : 1 h 50 min
  43. Bit rate mode                            : Constant
  44. Bit rate                                 : 640 kb/s
  45. Channel(s)                               : 6 channels
  46. Channel layout                           : L R C LFE Ls Rs
  47. Sampling rate                            : 48.0 kHz
  48. Frame rate                               : 31.250 FPS (1536 SPF)
  49. Compression mode                         : Lossy
  50. Stream size                              : 505 MiB (11%)
  51. Title                                    : 捷克语.Czech.AC3-5.1@640KBPS
  52. Service kind                             : Complete Main
  53. Default                                  : Yes
  54. Forced                                   : No
  55. Text #1
  56. ID                                       : 3
  57. Format                                   : PGS
  58. Codec ID                                 : S_HDMV/PGS
  59. Codec ID/Info                            : Picture based subtitle format used on BDs/HD-DVDs
  60. Duration                                 : 1 h 42 min
  61. Bit rate                                 : 28.4 kb/s
  62. Count of elements                        : 1838
  63. Stream size                              : 20.9 MiB (0%)
  64. Title                                    : 简中.sup
  65. Language                                 : Chinese
  66. Default                                  : Yes
  67. Forced                                   : No
  68. Text #2
  69. ID                                       : 4
  70. Format                                   : PGS
  71. Codec ID                                 : S_HDMV/PGS
  72. Codec ID/Info                            : Picture based subtitle format used on BDs/HD-DVDs
  73. Duration                                 : 1 h 42 min
  74. Bit rate                                 : 29.8 kb/s
  75. Count of elements                        : 1838
  76. Stream size                              : 21.9 MiB (0%)
  77. Title                                    : 繁中.sup
  78. Language                                 : Chinese
  79. Default                                  : No
  80. Forced                                   : No
  81. Text #3
  82. ID                                       : 5
  83. Format                                   : PGS
  84. Codec ID                                 : S_HDMV/PGS
  85. Codec ID/Info                            : Picture based subtitle format used on BDs/HD-DVDs
  86. Duration                                 : 1 h 42 min
  87. Bit rate                                 : 33.4 kb/s
  88. Count of elements                        : 1870
  89. Stream size                              : 24.5 MiB (1%)
  90. Title                                    : 英语.English.sup
  91. Language                                 : English
  92. Default                                  : No
  93. Forced                                   : No
  94. Menu
  95. 00:00:00.000                             : en:Chapter 01
  96. 00:07:39.240                             : en:Chapter 02
  97. 00:12:12.640                             : en:Chapter 03
  98. 00:41:13.721                             : en:Chapter 04
  99. 00:31:40.600                             : en:Chapter 05
  100. 00:39:55.080                             : en:Chapter 06
  101. 00:51:33.960                             : en:Chapter 07
  102. 00:59:57.160                             : en:Chapter 08
  103. 01:12:14.520                             : en:Chapter 09
  104. 01:21:18.640                             : en:Chapter 10
  105. 01:29:00.880                             : en:Chapter 11
  106. 01:44:34.920                             : en:Chapter 12





此处一般会放置磁力链或种子下载链接,不过此链接需要注册会员才能看到,点击“立即注册”
磁力链下载【下载链接仅对注册会员开放,登陆后可见】
BT9527电影天堂 1、BT9527电影天堂提供的BT文件均来源于互联网抓取,只供网友学习交流、技术提升使用。
2、我们遵守BitTorrent点对点协议原则,任何版权问题请联系原资源发布商,我们不处理任何版权纠纷,谢谢!如有争议请联系邮箱:BT9527#hotmail.com(#换成@)
3、如果您发现某页面或地址有错误,请联系站长邮箱BT9527#hotmail.com(#换成@),我们会尽快处理。您的热心是对BT9527电影天堂最大的支持。
4、本站建议去正规影院观看电影以支持电影行业发展。
最新回复 (0)

你可以在 登录 or 注册 后,对此帖发表评论!

返回
发新帖