曾经[简体字幕].Once.2006.BluRay.1080p.x265.10bit-MiniHD 5.47GB

版主小s 4天前 78

✔资源类型:暂未分类   ✔电影年份:2007   ✔电影地区:其他   ✔电影分类:剧情

◎标  题 曾经
◎译  名 一奏倾情(港) / 曾经。爱是唯一(台) / 曾经拥有 / 一生的唯一 / 情难独奏(豆友译名) / 宛似(豆友译名)
◎片  名 Once
◎年  代 2007
◎产  地 爱尔兰
◎类  别 剧情 / 爱情 / 音乐
◎语  言 英语 / 捷克语
◎上映日期 2007-01-20(圣丹斯电影节) / 2007-03-23(爱尔兰)
◎IMDb评分 7.8/10 (114030人评价)
◎IMDb链接 https://www.imdb.com/title/tt0907657/
◎豆瓣评分 8.3/10 (264601人评价)
◎豆瓣链接 https://movie.douban.com/subject/2053515/
◎片  长 86分钟
◎导  演 约翰·卡尼 John Carney
◎编  剧 约翰·卡尼 John Carney
◎演  员 格伦·汉塞德 Glen Hansard
       玛可塔·伊尔格洛娃 Markéta Irglová
       杰拉德·亨德里克 Gerard Hendrick
       休·沃尔什 Hugh Walsh
       玛塞拉·普伦基特 Marcella Plunkett
       阿莱斯戴尔·福利 Alaistair Foley

◎标  签 音乐 / 爱尔兰 / 爱情 / 文艺 / 温情 / 浪漫 / 剧情 / 人生

◎简  介
    这是一部由音乐开启的爱尔兰电影。 卖花女(Marketa Irglova)被街头艺人(Glen Hansard饰)的音乐所吸引,开始了一段荡气回肠的浪漫故事。他们不是王子和公主,各自有着琐碎的生活,但是他们有个共同点,那就是对音乐的热爱。在一次合奏中,他们找到了彼此间惊人的默契。这个发现让他们兴奋,很快他们找到了另外的一个同伴,组成了一个乐队,并通过优秀的表现得到了专业人士的肯定。与此同时,爱情也在逐渐萌芽。音乐是这部电影最大的亮点之一,塑造了极其浪漫唯美的氛围。
  1. ##### MediaInfo ######
  2. General
  3. Unique ID                                : 176381423955947191671607283234215987261 (0x84B1D39C41C7AAF6BDAA7598F0FA883D)
  4. Complete name                            : Once.2006.BluRay.1080p.x265.10bit-MiniHD.mkv
  5. Format                                   : Matroska
  6. Format version                           : Version 4
  7. File size                                : 5.47 GiB
  8. Duration                                 : 1 h 26 min
  9. Overall bit rate                         : 9 061 kb/s
  10. Encoded date                             : UTC 2018-01-06 03:35:10
  11. Writing application                      : mkvmerge v8.5.2 ('Crosses') 32bit
  12. Writing library                          : libebml v1.3.3 + libmatroska v1.4.4
  13. Video
  14. ID                                       : 1
  15. Format                                   : HEVC
  16. Format/Info                              : High Efficiency Video Coding
  17. Format profile                           : Main 10@L4@Main
  18. Codec ID                                 : V_MPEGH/ISO/HEVC
  19. Duration                                 : 1 h 26 min
  20. Bit rate                                 : 7 512 kb/s
  21. Width                                    : 1 910 pixels
  22. Height                                   : 1 040 pixels
  23. Display aspect ratio                     : 1.85:1
  24. Frame rate mode                          : Constant
  25. Frame rate                               : 23.976 (24000/1001/53354) FPS
  26. Color space                              : YUV
  27. Chroma subsampling                       : 4:2:0
  28. Bit depth                                : 10 bits
  29. Bits/(Pixel*Frame)                       : 0.158
  30. Stream size                              : 4.54 GiB (83%)
  31. Writing library                          : x265 2.6+14-f09f3b4a2115:[Windows][GCC 7.2.0][64 bit] 10bit
  32. Encoding settings                        : cpuid=533541173503 / frame-threads=2 / numa-pools=4 / wpp / no-pmode / no-pme / no-psnr / no-ssim / log-level=2 / input-csp=1 / input-res=1910x1040 / interlace=0 / total-frames=124401 / level-idc=0 / high-tier=1 / uhd-bd=0 / ref=5 / no-allow-non-conformance / no-repeat-headers / annexb / no-aud / no-hrd / info / hash=0 / no-temporal-layers / no-open-gop / min-keyint=1 / keyint=360 / gop-lookahead=0 / bframes=8 / b-adapt=2 / b-pyramid / bframe-bias=0 / rc-lookahead=60 / lookahead-slices=4 / NTMzNTQ=uuDQuD2mJt9fsCf / scenecut=40 / no-intra-refresh / ctu=32 / min-cu-size=8 / no-rect / no-amp / max-tu-size=16 / tu-inter-depth=2 / tu-intra-depth=2 / limit-tu=4 / rdoq-level=2 / dynamic-rd=0.00 / ssim-rd / signhide / no-tskip / nr-intra=0 / nr-inter=0 / no-constrained-intra / no-strong-intra-smoothing / max-merge=3 / limit-refs=2 / limit-modes / me=3 / subme=5 / merange=25 / temporal-mvp / weightp / weightb / no-analyze-src-pics / deblock=-1:-1 / no-sao / no-sao-non-deblock / rd=4 / no-early-skip / no-rskip / no-fast-intra / no-tskip-fast / no-cu-lossless / b-intra / no-splitrd-skip / rdpenalty=1 / psy-rd=0.00 / psy-rdoq=5.00 / no-rd-refine / analysis-reuse-mode=0 / no-lossless / cbqpoffs=-2 / crqpoffs=-2 / rc=crf / crf=20.0 / qcomp=0.70 / qpstep=4 / stats-write=0 / stats-read=0 / ipratio=1.40 / pbratio=1.30 / aq-mode=2 / aq-strength=0.80 / cutree / zone-count=0 / no-strict-cbr / qg-size=16 / no-rc-grain / qpmax=69 / qpmin=0 / no-const-vbv / sar=1 / overscan=0 / videoformat=5 / range=0 / colorprim=1 / transfer=2 / colormatrix=2 / chromaloc=0 / display-window=0 / max-cll=0,0 / min-luma=0 / max-luma=1023 / log2-max-poc-lsb=8 / vui-timing-info / vui-hrd-info / slices=1 / no-opt-qp-pps / no-opt-ref-list-length-pps / no-multi-pass-opt-rps / scenecut-bias=0.05 / no-opt-cu-delta-qp / no-aq-motion / no-hdr / no-hdr-opt / no-dhdr10-opt / analysis-reuse-level=5 / scale-factor=0 / refine-intra=0 / refine-inter=0 / refine-mv=0 / no-limit-sao / ctu-info=0 / no-lowpass-dct / refine-mv-type=0 / copy-pic=1
  33. Default                                  : Yes
  34. Forced                                   : No
  35. Color range                              : Limited
  36. Color primaries                          : BT.709
  37. Audio
  38. ID                                       : 2
  39. Format                                   : DTS
  40. Format/Info                              : Digital Theater Systems
  41. Codec ID                                 : A_DTS
  42. Duration                                 : 1 h 26 min
  43. Bit rate mode                            : Constant
  44. Bit rate                                 : 1 509 kb/s
  45. Channel(s)                               : 2 channels
  46. Channel layout                           : Lt Rt
  47. Sampling rate                            : 48.0 kHz
  48. Frame rate                               : 93.750 FPS (512 SPF)
  49. Bit depth                                : 24 bits
  50. Compression mode                         : Lossy
  51. Stream size                              : 933 MiB (17%)
  52. Default                                  : Yes
  53. Forced                                   : No
  54. Text
  55. ID                                       : 3
  56. Format                                   : PGS
  57. Muxing mode                              : zlib
  58. Codec ID                                 : S_HDMV/PGS
  59. Codec ID/Info                            : Picture based subtitle format used on BDs/HD-DVDs
  60. Duration                                 : 1 h 26 min
  61. Bit rate                                 : 38.3 kb/s
  62. Count of elements                        : 2799
  63. Stream size                              : 23.6 MiB (0%)
  64. Title                                    : chs&eng
  65. Language                                 : Chinese
  66. Default                                  : Yes
  67. Forced                                   : Yes
  68. Menu
  69. 00:00:00.000                             : en:00:00:00.000
  70. 00:03:32.254                             : en:00:03:32.254
  71. 00:08:13.159                             : en:00:08:13.159
  72. 00:09:50.840                             : en:00:09:50.840
  73. 00:14:15.313                             : en:00:14:15.313
  74. 00:20:26.058                             : en:00:20:26.058
  75. 00:23:57.311                             : en:00:23:57.311
  76. 00:26:29.004                             : en:00:26:29.004
  77. 00:30:51.516                             : en:00:30:51.516
  78. 00:33:54.241                             : en:00:33:54.241
  79. 00:37:51.853                             : en:00:37:51.853
  80. 00:42:29.464                             : en:00:42:29.464
  81. 00:46:15.022                             : en:00:46:15.022
  82. 00:52:05.748                             : en:00:52:05.748
  83. 00:55:22.569                             : en:00:55:22.569
  84. 00:57:35.035                             : en:00:57:35.035
  85. 01:02:35.543                             : en:01:02:35.543
  86. 01:04:56.768                             : en:01:04:56.768
  87. 01:10:04.242                             : en:01:10:04.242
  88. 01:13:49.717                             : en:01:13:49.717
  89. 01:16:36.175                             : en:01:16:36.175
  90. 01:18:26.285                             : en:01:18:26.285
  91. 01:20:48.761                             : en:01:20:48.761
  92. 01:23:52.694                             : en:01:23:52.694





此处一般会放置磁力链或种子下载链接,不过此链接需要注册会员才能看到,点击“立即注册”
磁力链下载【下载链接仅对注册会员开放,登陆后可见】
BT9527电影天堂 1、BT9527电影天堂提供的BT文件均来源于互联网抓取,只供网友学习交流、技术提升使用。
2、我们遵守BitTorrent点对点协议原则,任何版权问题请联系原资源发布商,我们不处理任何版权纠纷,谢谢!如有争议请联系邮箱:BT9527#hotmail.com(#换成@)
3、如果您发现某页面或地址有错误,请联系站长邮箱BT9527#hotmail.com(#换成@),我们会尽快处理。您的热心是对BT9527电影天堂最大的支持。
4、本站建议去正规影院观看电影以支持电影行业发展。
最新回复 (0)

你可以在 登录 or 注册 后,对此帖发表评论!

返回