昨日之花[中文字幕].Die.Blumen.von.gestern.2016.BluRay.1080p.x265.10bit-MiniHD 5.78GB

版主小s 7天前 147

✔资源类型:暂未分类   ✔电影年份:2016   ✔电影地区:其他   ✔电影分类:剧情

◎标  题 昨日之花
◎译  名 昨日盛开的花朵(港 / 台) / The Bloom of Yesterday / The Flowers of Yesterday
◎片  名 Die Blumen von gestern
◎年  代 2016
◎产  地 奥地利 / 德国 / 法国
◎类  别 剧情 / 喜剧 / 爱情
◎语  言 德语 / 法语 / 英语
◎上映日期 2016-10-27(东京国际电影节) / 2017-01-12(德国)
◎IMDb链接 https://www.imdb.com/title/tt3756046/
◎豆瓣评分 7.0/10 (1163人评价)
◎豆瓣链接 https://movie.douban.com/subject/26608943/
◎片  长 125分钟
◎导  演 克里斯·克劳斯 Chris Kraus
◎编  剧 克里斯·克劳斯 Chris Kraus
◎演  员 拉斯·艾丁格 Lars Eidinger
       阿黛拉·哈内尔 Adèle Haenel
       扬·约瑟夫·利费斯 Jan Josef Liefers
       汉娜·赫茨施普龙 Hannah Herzsprung
       西格丽德·马夸特 Sigrid Marquardt
       杰娜布·加罗 Djenabuh Jalloh
       罗尔夫·霍帕 Rolf Hoppe
       比比安娜·泽勒 Bibiane Zeller
       格瑞迪·京特 Gerdy Zint
       伊娃·勒鲍 Eva Löbau

◎简  介
  托提拉(拉斯·艾丁格 Lars Eidinger 饰)是一名学者,研究的方向是德国大屠杀,虽然他的研究成果在业界备受关注,学术前途无量,但这项残忍的研究已经让托提拉的精神濒临了崩溃的边缘。原来,托提拉隐藏了一段不为人知的往事,他的祖父从前竟然是一名纳粹,亲手害死过许多手无寸铁的无辜者,每想到此,托提拉都会感到无比的痛苦。                                    
                                一次偶然中,托提拉结识了名为扎吉(阿黛拉·哈内尔 Adèle Haenel 饰)的犹太女孩,扎吉个性开朗热情,犹如一束阳光照亮了托提拉阴郁的世界。扎吉的祖母在二战期间被纳粹迫害致死,而让扎吉无法接受的时,当年迫害自己祖母的人,竟然就是托提拉的祖父。
  1. ##### MediaInfo ######
  2. General
  3. Unique ID                                : 297320237484737736478649757911816701493 (0xDFADCB7AEC7D0569F9A926E3CD8D8635)
  4. Complete name                            : Die.Blumen.von.gestern.2016.BluRay.1080p.x265.10bit-MiniHD.mkv
  5. Format                                   : Matroska
  6. Format version                           : Version 4
  7. File size                                : 5.78 GiB
  8. Duration                                 : 2 h 5 min
  9. Overall bit rate                         : 6 588 kb/s
  10. Encoded date                             : UTC 2018-03-01 04:24:30
  11. Writing application                      : mkvmerge v20.0.0 ('I Am The Sun') 32-bit
  12. Writing library                          : libebml v1.3.5 + libmatroska v1.4.8
  13. Video
  14. ID                                       : 1
  15. Format                                   : HEVC
  16. Format/Info                              : High Efficiency Video Coding
  17. Format profile                           : Main 10@L4@Main
  18. Codec ID                                 : V_MPEGH/ISO/HEVC
  19. Duration                                 : 2 h 5 min
  20. Bit rate                                 : 5 689 kb/s
  21. Width                                    : 1 920 pixels
  22. Height                                   : 804 pixels
  23. Display aspect ratio                     : 2.40:1
  24. Frame rate mode                          : Constant
  25. Frame rate                               : 24.000 FPS
  26. Color space                              : YUV
  27. Chroma subsampling                       : 4:2:0
  28. Bit depth                                : 10 bits
  29. Bits/(Pixel*Frame)                       : 0.154
  30. Stream size                              : 4.99 GiB (86%)
  31. Writing library                          : x265 2.5+27-0e168bdeb48b:[Windows][MSVC 1911][64 bit] 10bit
  32. Encoding settings                        : cpuid=533541173503 / frame-threads=5 / numa-pools=36 / wpp / no-pmode / no-pme / no-psnr / no-ssim / log-level=2 / csvfn=D:\bdrip\VonGestern2016.log / csv-log-level=0 / input-csp=1 / input-res=1920x804 / interlace=0 / total-frames=180913 / level-idc=0 / high-tier=1 / uhd-bd=0 / ref=5 / no-allow-non-conformance / no-repeat-headers / annexb / no-aud / no-hrd / info / hash=0 / no-temporal-layers / no-open-gop / min-keyint=1 / keyint=360 / bframes=9 / b-adapt=2 / b-pyramid / bframe-bias=0 / rc-lookahead=60 / lookahead-slices=4 / NTMzNTQ=uuDQuD2mJt9fsCf / scenecut=40 / no-intra-refresh / ctu=32 / min-cu-size=8 / no-rect / no-amp / max-tu-size=16 / tu-inter-depth=2 / tu-intra-depth=2 / limit-tu=4 / rdoq-level=2 / dynamic-rd=0.00 / ssim-rd / signhide / no-tskip / nr-intra=0 / nr-inter=0 / no-constrained-intra / no-strong-intra-smoothing / max-merge=3 / limit-refs=2 / limit-modes / me=3 / subme=5 / merange=25 / temporal-mvp / weightp / weightb / no-analyze-src-pics / deblock=-1:-1 / no-sao / no-sao-non-deblock / rd=4 / no-early-skip / no-rskip / no-fast-intra / no-tskip-fast / no-cu-lossless / b-intra / no-splitrd-skip / rdpenalty=1 / psy-rd=0.00 / psy-rdoq=5.00 / no-rd-refine / analysis-reuse-mode=0 / no-lossless / cbqpoffs=-1 / crqpoffs=-1 / rc=crf / crf=18.0 / qcomp=0.65 / qpstep=4 / stats-write=0 / stats-read=0 / ipratio=1.40 / pbratio=1.30 / aq-mode=2 / aq-strength=0.80 / cutree / zone-count=0 / no-strict-cbr / qg-size=16 / no-rc-grain / qpmax=69 / qpmin=0 / no-const-vbv / sar=0 / overscan=0 / videoformat=5 / range=0 / colorprim=1 / transfer=2 / colormatrix=2 / chromaloc=0 / display-window=0 / max-cll=0,0 / min-luma=0 / max-luma=1023 / log2-max-poc-lsb=8 / vui-timing-info / vui-hrd-info / slices=1 / opt-qp-pps / opt-ref-list-length-pps / no-multi-pass-opt-rps / scenecut-bias=0.05 / no-opt-cu-delta-qp / no-aq-motion / no-hdr / no-hdr-opt / no-dhdr10-opt / analysis-reuse-level=5 / scale-factor=0 / refine-intra=0 / refine-inter=0 / refine-mv=0 / no-limit-sao / ctu-info=0
  33. Default                                  : Yes
  34. Forced                                   : No
  35. Color range                              : Limited
  36. Color primaries                          : BT.709
  37. Audio
  38. ID                                       : 2
  39. Format                                   : DTS
  40. Format/Info                              : Digital Theater Systems
  41. Codec ID                                 : A_DTS
  42. Duration                                 : 2 h 5 min
  43. Bit rate mode                            : Constant
  44. Bit rate                                 : 768 kb/s
  45. Channel(s)                               : 6 channels
  46. Channel layout                           : C L R Ls Rs LFE
  47. Sampling rate                            : 48.0 kHz
  48. Frame rate                               : 93.750 FPS (512 SPF)
  49. Bit depth                                : 16 bits
  50. Compression mode                         : Lossy
  51. Stream size                              : 690 MiB (12%)
  52. Language                                 : German
  53. Default                                  : Yes
  54. Forced                                   : No
  55. Text #1
  56. ID                                       : 3
  57. Format                                   : PGS
  58. Muxing mode                              : zlib
  59. Codec ID                                 : S_HDMV/PGS
  60. Codec ID/Info                            : Picture based subtitle format used on BDs/HD-DVDs
  61. Language                                 : German
  62. Default                                  : Yes
  63. Forced                                   : No
  64. Text #2
  65. ID                                       : 4
  66. Format                                   : PGS
  67. Muxing mode                              : zlib
  68. Codec ID                                 : S_HDMV/PGS
  69. Codec ID/Info                            : Picture based subtitle format used on BDs/HD-DVDs
  70. Language                                 : Chinese
  71. Default                                  : No
  72. Forced                                   : No
  73. Text #3
  74. ID                                       : 5
  75. Format                                   : PGS
  76. Muxing mode                              : zlib
  77. Codec ID                                 : S_HDMV/PGS
  78. Codec ID/Info                            : Picture based subtitle format used on BDs/HD-DVDs
  79. Language                                 : Chinese
  80. Default                                  : No
  81. Forced                                   : No
  82. Menu
  83. 00:00:00.000                             : en:Chapter 01
  84. 00:04:38.416                             : en:Chapter 02
  85. 00:09:18.416                             : en:Chapter 03
  86. 00:13:46.708                             : en:Chapter 04
  87. 00:21:58.916                             : en:Chapter 05
  88. 00:27:47.208                             : en:Chapter 06
  89. 00:31:59.458                             : en:Chapter 07
  90. 00:38:44.000                             : en:Chapter 08
  91. 00:44:42.791                             : en:Chapter 09
  92. 00:50:28.583                             : en:Chapter 10
  93. 00:53:53.916                             : en:Chapter 11
  94. 01:01:52.250                             : en:Chapter 12
  95. 01:07:29.125                             : en:Chapter 13
  96. 01:16:15.708                             : en:Chapter 14
  97. 01:23:43.333                             : en:Chapter 15
  98. 01:35:00.041                             : en:Chapter 16
  99. 01:40:06.708                             : en:Chapter 17
  100. 01:48:46.458                             : en:Chapter 18
  101. 01:56:10.083                             : en:Chapter 19
  102. 02:00:23.541                             : en:Chapter 20





此处一般会放置磁力链或种子下载链接,不过此链接需要注册会员才能看到,点击“立即注册”
磁力链下载【下载链接仅对注册会员开放,登陆后可见】
BT9527电影天堂 1、BT9527电影天堂提供的BT文件均来源于互联网抓取,只供网友学习交流、技术提升使用。
2、我们遵守BitTorrent点对点协议原则,任何版权问题请联系原资源发布商,我们不处理任何版权纠纷,谢谢!如有争议请联系邮箱:BT9527#hotmail.com(#换成@)
3、如果您发现某页面或地址有错误,请联系站长邮箱BT9527#hotmail.com(#换成@),我们会尽快处理。您的热心是对BT9527电影天堂最大的支持。
4、本站建议去正规影院观看电影以支持电影行业发展。
最新回复 (0)

你可以在 登录 or 注册 后,对此帖发表评论!

返回
发新帖