无姓之人[简繁英字幕].Mr.Nobody.2009.Extended.Cut.BluRay.1080p.x265.10bit-MiniHD 6.90GB

版主小s 3月前 208

✔资源类型:暂未分类   ✔电影年份:2009   ✔电影地区:其他   ✔电影分类:剧情

◎标  题 无姓之人
◎译  名 小国民尼谟(港) / 倒帶人生(台) / 无主之人 / 无名先生
◎片  名 Mr. Nobody
◎年  代 2009
◎产  地 加拿大 / 比利时 / 法国 / 德国
◎类  别 剧情 / 爱情 / 科幻 / 奇幻
◎语  言 英语
◎上映日期 2009-09-12(威尼斯电影节) / 2010-01-13(法国/比利时) / 2010-07-08(德国)
◎IMDb评分 7.8/10 (226209人评价)
◎IMDb链接 https://www.imdb.com/title/tt0485947/
◎豆瓣评分 8.2/10 (108891人评价)
◎豆瓣链接 https://movie.douban.com/subject/2076181/
◎片  长 141分钟
◎导  演 雅克·范·多梅尔 Jaco Van Dormael
◎编  剧 雅克·范·多梅尔 Jaco Van Dormael
◎演  员 杰瑞德·莱托 Jared Leto
       萨拉·波莉 Sarah Polley
       黛安·克鲁格 Diane Kruger
       范林丹 Linh Dan Pham
       瑞斯·伊凡斯 Rhys Ifans
       娜塔莎·里特 Natasha Little
       托比·瑞格波 Toby Regbo
       朱诺·坦普尔 Juno Temple
       克莱尔·斯通 Clare Stone
       阿兰·柯德勒 Allan Corduner
       丹尼尔·梅斯 Daniel Mays
       迈克尔·莱利 Michael Riley
       帕斯卡·杜奎奈 Pascal Duquenne
       托马斯·伯恩 Thomas Byrne
       Catherine Demaiffe Catherine Demaiffe
       哈罗德·曼宁 Harold Manning
        Anders Morris
       扬·哈梅内克 Jan Hammenecker
       林赛·布罗德 Lindsey Broad
       奥黛丽·贾科米尼 Audrey Giacomini
       Christophe Beaucarne Christophe Beaucarne
       洛朗特·卡普洛托 Laurent Capelluto
       西尔维·奥利维 Sylvie Olivé
       玛丽-伊芙·布瑞加德 Marie-Ève Beauregard
       雅克·范·多梅尔 Jaco Van Dormael
       Christian Larouche Christian Larouche
       本杰明·布里顿 Benjamin Britten
       皮埃尔·戈多 Pierre Godeau
       Christophe Beaucarne Christophe Beaucarne
       Susan Shipton Susan Shipton
       乔安娜·科尔伯特 Joanna Colbert
       西尔维·奥利维 Sylvie Olivé
       路易斯·莫林 Louis Morin
       Mathieu Raynault Mathieu Raynault
       路易斯·莫林 Louis Morin
       Christophe Pacaud Christophe Pacaud
       Patrick Martel Patrick Martel
       汉斯·季默 Hans Zimmer

◎标  签 科幻 / 爱情 / 法国 / 人生 / 奇幻 / 剧情 / 2009 / 加拿大

◎简  介
  在2092年的未来,火星已成了地球人热衷的度假胜地。118岁高龄的尼莫·诺巴蒂(杰瑞德·莱托 Jared Leto 饰)是最后一位仍会死亡的自然人。记忆混乱的他在一次次的催眠及采访之中不断回忆自己的童年,却在每个人生分岔点都衍生出完全不同的人生。在这些不同的版本中,有母亲(娜塔莎·雷托 Natasha Little 饰)和父亲(瑞斯·伊凡斯 Rhys Ifans 饰)离婚后再婚而变成了尼莫“妹妹”的安娜(黛安·克鲁格 Diane Kruger 饰),有身患抑郁症婚后情绪不稳的埃莉斯(萨拉·波莉 Sarah Polley 饰),还有与他育有三名子女的亚洲女孩吉恩(范林丹 Linh Dan Pham 饰)。交织在宇宙大爆炸理论、超弦理论和时间特性的解释中,尼莫的人生真相究竟为何呢?                                       
                                    本片获2009年威尼斯电影节金狮奖提名,并获虚构类最佳传记电影奖和Gol...
  1. ##### MediaInfo ######
  2. General
  3. Unique ID                                : 81089142394950983972546223299471206772 (0x3D0133645F573D91F5885225D315E974)
  4. Complete name                            : Mr.Nobody.2009.Extended.Cut.BluRay.1080p.x265.10bit-MiniHD.mkv
  5. Format                                   : Matroska
  6. Format version                           : Version 4
  7. File size                                : 6.89 GiB
  8. Duration                                 : 2 h 35 min
  9. Overall bit rate                         : 6 331 kb/s
  10. Encoded date                             : UTC 2018-01-28 11:30:59
  11. Writing application                      : mkvmerge v20.0.0 ('I Am The Sun') 64-bit
  12. Writing library                          : libebml v1.3.5 + libmatroska v1.4.8
  13. Video
  14. ID                                       : 1
  15. Format                                   : HEVC
  16. Format/Info                              : High Efficiency Video Coding
  17. Format profile                           : Main 10@L4@High
  18. Codec ID                                 : V_MPEGH/ISO/HEVC
  19. Duration                                 : 2 h 35 min
  20. Bit rate                                 : 5 654 kb/s
  21. Width                                    : 1 920 pixels
  22. Height                                   : 824 pixels
  23. Display aspect ratio                     : 2.35:1
  24. Frame rate mode                          : Constant
  25. Frame rate                               : 23.976 (24000/1001/53354) FPS
  26. Color space                              : YUV
  27. Chroma subsampling                       : 4:2:0
  28. Bit depth                                : 10 bits
  29. Bits/(Pixel*Frame)                       : 0.149
  30. Stream size                              : 6.16 GiB (89%)
  31. Title                                    : 视频
  32. Default                                  : Yes
  33. Forced                                   : No
  34. Color range                              : Limited
  35. Color primaries                          : BT.709
  36. Audio
  37. ID                                       : 2
  38. Format                                   : AC-3
  39. Format/Info                              : Audio Coding 3
  40. Commercial name                          : Dolby Digital
  41. Codec ID                                 : A_AC3
  42. Duration                                 : 2 h 35 min
  43. Bit rate mode                            : Constant
  44. Bit rate                                 : 640 kb/s
  45. Channel(s)                               : 6 channels
  46. Channel layout                           : L R C LFE Ls Rs
  47. Sampling rate                            : 48.0 kHz
  48. Frame rate                               : 31.250 FPS (1536 SPF)
  49. Compression mode                         : Lossy
  50. Stream size                              : 714 MiB (10%)
  51. Title                                    : 英语ac3-5.1@640kbps
  52. Language                                 : English
  53. Service kind                             : Complete Main
  54. Default                                  : Yes
  55. Forced                                   : No
  56. Text #1
  57. ID                                       : 3
  58. Format                                   : PGS
  59. Muxing mode                              : zlib
  60. Codec ID                                 : S_HDMV/PGS
  61. Codec ID/Info                            : Picture based subtitle format used on BDs/HD-DVDs
  62. Duration                                 : 2 h 24 min
  63. Bit rate                                 : 14.0 kb/s
  64. Count of elements                        : 2416
  65. Stream size                              : 14.4 MiB (0%)
  66. Title                                    : 简中
  67. Language                                 : Chinese
  68. Default                                  : Yes
  69. Forced                                   : No
  70. Text #2
  71. ID                                       : 4
  72. Format                                   : PGS
  73. Muxing mode                              : zlib
  74. Codec ID                                 : S_HDMV/PGS
  75. Codec ID/Info                            : Picture based subtitle format used on BDs/HD-DVDs
  76. Duration                                 : 2 h 24 min
  77. Bit rate                                 : 16.5 kb/s
  78. Count of elements                        : 2416
  79. Stream size                              : 17.0 MiB (0%)
  80. Title                                    : 繁中
  81. Language                                 : Chinese
  82. Default                                  : No
  83. Forced                                   : No
  84. Text #3
  85. ID                                       : 5
  86. Format                                   : PGS
  87. Muxing mode                              : zlib
  88. Codec ID                                 : S_HDMV/PGS
  89. Codec ID/Info                            : Picture based subtitle format used on BDs/HD-DVDs
  90. Duration                                 : 2 h 26 min
  91. Bit rate                                 : 44.4 kb/s
  92. Count of elements                        : 3264
  93. Stream size                              : 46.5 MiB (1%)
  94. Title                                    : 英语
  95. Language                                 : English
  96. Default                                  : No
  97. Forced                                   : No





此处一般会放置磁力链或种子下载链接,不过此链接需要注册会员才能看到,点击“立即注册”
磁力链下载【下载链接仅对注册会员开放,登陆后可见】
BT9527电影天堂 1、BT9527电影天堂提供的BT文件均来源于互联网抓取,只供网友学习交流、技术提升使用。
2、我们遵守BitTorrent点对点协议原则,任何版权问题请联系原资源发布商,我们不处理任何版权纠纷,谢谢!如有争议请联系邮箱:BT9527#hotmail.com(#换成@)
3、如果您发现某页面或地址有错误,请联系站长邮箱BT9527#hotmail.com(#换成@),我们会尽快处理。您的热心是对BT9527电影天堂最大的支持。
4、本站建议去正规影院观看电影以支持电影行业发展。
最新回复 (0)

你可以在 登录 or 注册 后,对此帖发表评论!

返回