战争之王[简繁英字幕].Lord.of.War.2005.BluRay.1080p.x265.10bit.2Audio-MiniHD 8.16GB

版主小s 10天前 98

✔资源类型:暂未分类   ✔电影年份:更 早   ✔电影地区:其他   ✔电影分类:剧情

◎标  题 战争之王
◎译  名 军火之王(台 / 港) / 军火商
◎片  名 Lord of War
◎年  代 2005
◎产  地 法国 / 德国 / 美国
◎类  别 剧情 / 犯罪
◎语  言 英语 / 乌克兰语 / 德语 / 西班牙语 / 俄语 / 法语 / 阿拉伯语 / 土耳其语
◎上映日期 2005-09-16(美国)
◎IMDb评分 7.6/10 (304756人评价)
◎IMDb链接 https://www.imdb.com/title/tt0399295/
◎豆瓣评分 8.7/10 (309808人评价)
◎豆瓣链接 https://movie.douban.com/subject/1419936/
◎片  长 122 分钟
◎导  演 安德鲁·尼科尔 Andrew Niccol
◎编  剧 安德鲁·尼科尔 Andrew Niccol
◎演  员 尼古拉斯·凯奇 Nicolas Cage
       布丽姬·穆娜 Bridget Moynahan
       杰瑞德·莱托 Jared Leto
       伊安·霍姆 Ian Holm
       伊桑·霍克 Ethan Hawke
       埃夫吉恩尼·拉扎雷夫 Evgeniy Lazarev
       伊默恩·沃克 Eamonn Walker
       塔尼特·菲尼克斯 Tanit Phoenix
       米哈伊尔·戈尔巴乔夫 Mikhail Gorbachev
       阿金·奥莫托索 Akin Omotoso
       Jared Burke Jared Burke
       大卫·尚布里斯 David Shumbris
       杰里米·克鲁齐利 Jeremy Crutchley
       莉亚·科贝德 Liya Kebede
       唐纳德·萨瑟兰 Donald Sutherland
       谢可·图克马尼安 Shake Tukhmanyan

◎标  签 尼古拉斯·凯奇 / 战争 / 美国 / 剧情 / 战争之王 / 犯罪 / 美国电影 / NicolasCage

◎简  介
    本来美国移民尤瑞(尼古拉斯•凯奇 Nicolas Cage 饰)的家族生意是开饭馆。但是一个偶然的机会令他踏入了军火生意的大门,从此开始了贩卖武器的“职业生涯”。尤瑞遇事机智,胆大心细,这不仅让他成功俘获了美女埃娃的心,还使得他在地下军火生意中愈战愈勇。但是,不顺心的事情也随之而来:出现了生意上的死对头和一名老是盯着他的国际警察;弟弟染上毒瘾,并在一单生意交易中丧了命,而且,尽管他在竭力维护自己在家庭里的正义形象,但却掩盖不了真相。尤瑞开始反省自己生意的正义性,拷问自己的良心,但一切太迟,他已经众叛亲离……
  1. ##### MediaInfo ######
  2. General
  3. Unique ID                                : 189074904032687848760800522229695271628 (0x8E3E807F3263A84497F2E7BA71AA52CC)
  4. Complete name                            : Lord.of.War.2005.BluRay.1080p.x265.10bit.2Audio-MiniHD.mkv
  5. Format                                   : Matroska
  6. Format version                           : Version 4
  7. File size                                : 8.16 GiB
  8. Duration                                 : 2 h 1 min
  9. Overall bit rate                         : 9 582 kb/s
  10. Encoded date                             : UTC 2018-01-28 07:58:17
  11. Writing application                      : mkvmerge v8.5.2 ('Crosses') 32bit
  12. Writing library                          : libebml v1.3.3 + libmatroska v1.4.4
  13. Video
  14. ID                                       : 1
  15. Format                                   : HEVC
  16. Format/Info                              : High Efficiency Video Coding
  17. Format profile                           : Main 10@L4@Main
  18. Codec ID                                 : V_MPEGH/ISO/HEVC
  19. Duration                                 : 2 h 1 min
  20. Bit rate                                 : 8 142 kb/s
  21. Width                                    : 1 920 pixels
  22. Height                                   : 798 pixels
  23. Display aspect ratio                     : 2.40:1
  24. Frame rate mode                          : Constant
  25. Frame rate                               : 23.976 (24000/1001/53354) FPS
  26. Color space                              : YUV
  27. Chroma subsampling                       : 4:2:0
  28. Bit depth                                : 10 bits
  29. Bits/(Pixel*Frame)                       : 0.222
  30. Stream size                              : 6.94 GiB (85%)
  31. Writing library                          : x265 2.6+14-f09f3b4a2115:[Windows][GCC 7.2.0][64 bit] 10bit
  32. Encoding settings                        : cpuid=533541173503 / frame-threads=2 / numa-pools=4 / wpp / no-pmode / no-pme / no-psnr / no-ssim / log-level=2 / input-csp=1 / input-res=1920x798 / interlace=0 / total-frames=175446 / level-idc=0 / high-tier=1 / uhd-bd=0 / ref=5 / no-allow-non-conformance / no-repeat-headers / annexb / no-aud / no-hrd / info / hash=0 / no-temporal-layers / no-open-gop / min-keyint=1 / keyint=360 / gop-lookahead=0 / bframes=8 / b-adapt=2 / b-pyramid / bframe-bias=0 / rc-lookahead=60 / lookahead-slices=4 / NTMzNTQ=uuDQuD2mJt9fsCf / scenecut=40 / no-intra-refresh / ctu=32 / min-cu-size=8 / no-rect / no-amp / max-tu-size=16 / tu-inter-depth=2 / tu-intra-depth=2 / limit-tu=4 / rdoq-level=2 / dynamic-rd=0.00 / ssim-rd / signhide / no-tskip / nr-intra=0 / nr-inter=0 / no-constrained-intra / no-strong-intra-smoothing / max-merge=3 / limit-refs=2 / limit-modes / me=3 / subme=5 / merange=25 / temporal-mvp / weightp / weightb / no-analyze-src-pics / deblock=-1:-1 / no-sao / no-sao-non-deblock / rd=4 / no-early-skip / no-rskip / no-fast-intra / no-tskip-fast / no-cu-lossless / b-intra / no-splitrd-skip / rdpenalty=1 / psy-rd=0.00 / psy-rdoq=5.00 / no-rd-refine / analysis-reuse-mode=0 / no-lossless / cbqpoffs=-2 / crqpoffs=-2 / rc=crf / crf=21.0 / qcomp=0.66 / qpstep=4 / stats-write=0 / stats-read=0 / ipratio=1.40 / pbratio=1.30 / aq-mode=2 / aq-strength=0.80 / cutree / zone-count=0 / no-strict-cbr / qg-size=16 / no-rc-grain / qpmax=69 / qpmin=0 / no-const-vbv / sar=1 / overscan=0 / videoformat=5 / range=0 / colorprim=1 / transfer=2 / colormatrix=2 / chromaloc=0 / display-window=0 / max-cll=0,0 / min-luma=0 / max-luma=1023 / log2-max-poc-lsb=8 / vui-timing-info / vui-hrd-info / slices=1 / no-opt-qp-pps / no-opt-ref-list-length-pps / no-multi-pass-opt-rps / scenecut-bias=0.05 / no-opt-cu-delta-qp / no-aq-motion / no-hdr / no-hdr-opt / no-dhdr10-opt / analysis-reuse-level=5 / scale-factor=0 / refine-intra=0 / refine-inter=0 / refine-mv=0 / no-limit-sao / ctu-info=0 / no-lowpass-dct / refine-mv-type=0 / copy-pic=1
  33. Default                                  : Yes
  34. Forced                                   : No
  35. Color range                              : Limited
  36. Color primaries                          : BT.709
  37. Audio #1
  38. ID                                       : 2
  39. Format                                   : AC-3
  40. Format/Info                              : Audio Coding 3
  41. Commercial name                          : Dolby Digital
  42. Codec ID                                 : A_AC3
  43. Duration                                 : 2 h 1 min
  44. Bit rate mode                            : Constant
  45. Bit rate                                 : 640 kb/s
  46. Channel(s)                               : 6 channels
  47. Channel layout                           : L R C LFE Ls Rs
  48. Sampling rate                            : 48.0 kHz
  49. Frame rate                               : 31.250 FPS (1536 SPF)
  50. Compression mode                         : Lossy
  51. Stream size                              : 558 MiB (7%)
  52. Service kind                             : Complete Main
  53. Default                                  : Yes
  54. Forced                                   : Yes
  55. Audio #2
  56. ID                                       : 3
  57. Format                                   : DTS
  58. Format/Info                              : Digital Theater Systems
  59. Codec ID                                 : A_DTS
  60. Duration                                 : 2 h 1 min
  61. Bit rate mode                            : Constant
  62. Bit rate                                 : 754 kb/s
  63. Channel(s)                               : 6 channels
  64. Channel layout                           : C L R Ls Rs LFE
  65. Sampling rate                            : 48.0 kHz
  66. Frame rate                               : 93.750 FPS (512 SPF)
  67. Bit depth                                : 24 bits
  68. Compression mode                         : Lossy
  69. Stream size                              : 658 MiB (8%)
  70. Default                                  : No
  71. Forced                                   : No
  72. Text #1
  73. ID                                       : 4
  74. Format                                   : PGS
  75. Muxing mode                              : zlib
  76. Codec ID                                 : S_HDMV/PGS
  77. Codec ID/Info                            : Picture based subtitle format used on BDs/HD-DVDs
  78. Duration                                 : 1 h 55 min
  79. Bit rate                                 : 15.7 kb/s
  80. Count of elements                        : 3722
  81. Stream size                              : 13.0 MiB (0%)
  82. Title                                    : CHT
  83. Language                                 : Chinese
  84. Default                                  : No
  85. Forced                                   : No
  86. Text #2
  87. ID                                       : 5
  88. Format                                   : PGS
  89. Muxing mode                              : zlib
  90. Codec ID                                 : S_HDMV/PGS
  91. Codec ID/Info                            : Picture based subtitle format used on BDs/HD-DVDs
  92. Duration                                 : 1 h 55 min
  93. Bit rate                                 : 14.9 kb/s
  94. Count of elements                        : 3722
  95. Stream size                              : 12.4 MiB (0%)
  96. Title                                    : CHS
  97. Language                                 : Chinese
  98. Default                                  : Yes
  99. Forced                                   : Yes
  100. Text #3
  101. ID                                       : 6
  102. Format                                   : PGS
  103. Muxing mode                              : zlib
  104. Codec ID                                 : S_HDMV/PGS
  105. Codec ID/Info                            : Picture based subtitle format used on BDs/HD-DVDs
  106. Duration                                 : 1 h 56 min
  107. Bit rate                                 : 14.8 kb/s
  108. Count of elements                        : 3000
  109. Stream size                              : 12.4 MiB (0%)
  110. Title                                    : ENG
  111. Language                                 : English
  112. Default                                  : No
  113. Forced                                   : No
  114. Menu
  115. 00:00:00.000                             : en:00:00:00.000
  116. 00:04:37.610                             : en:00:04:37.610
  117. 00:08:13.493                             : en:00:08:13.493
  118. 00:12:29.457                             : en:00:12:29.457
  119. 00:16:40.332                             : en:00:16:40.332
  120. 00:19:35.174                             : en:00:19:35.174
  121. 00:23:27.072                             : en:00:23:27.072
  122. 00:27:19.888                             : en:00:27:19.888
  123. 00:31:07.115                             : en:00:31:07.115
  124. 00:38:20.089                             : en:00:38:20.089
  125. 00:42:18.786                             : en:00:42:18.786
  126. 00:45:52.166                             : en:00:45:52.166
  127. 00:50:43.999                             : en:00:50:43.999
  128. 00:53:56.149                             : en:00:53:56.149
  129. 00:58:17.911                             : en:00:58:17.911
  130. 01:02:48.931                             : en:01:02:48.931
  131. 01:08:33.442                             : en:01:08:33.442
  132. 01:12:25.841                             : en:01:12:25.841
  133. 01:17:21.094                             : en:01:17:21.094
  134. 01:21:31.595                             : en:01:21:31.595
  135. 01:25:03.932                             : en:01:25:03.932
  136. 01:30:07.276                             : en:01:30:07.276
  137. 01:37:01.273                             : en:01:37:01.273
  138. 01:40:10.212                             : en:01:40:10.212
  139. 01:47:04.209                             : en:01:47:04.209
  140. 01:50:58.109                             : en:01:50:58.109
  141. 01:54:23.481                             : en:01:54:23.481
  142. 01:56:09.504                             : en:01:56:09.504





此处一般会放置磁力链或种子下载链接,不过此链接需要注册会员才能看到,点击“立即注册”
磁力链下载【下载链接仅对注册会员开放,登陆后可见】
BT9527电影天堂 1、BT9527电影天堂提供的BT文件均来源于互联网抓取,只供网友学习交流、技术提升使用。
2、我们遵守BitTorrent点对点协议原则,任何版权问题请联系原资源发布商,我们不处理任何版权纠纷,谢谢!如有争议请联系邮箱:BT9527#hotmail.com(#换成@)
3、如果您发现某页面或地址有错误,请联系站长邮箱BT9527#hotmail.com(#换成@),我们会尽快处理。您的热心是对BT9527电影天堂最大的支持。
4、本站建议去正规影院观看电影以支持电影行业发展。
最新回复 (0)

你可以在 登录 or 注册 后,对此帖发表评论!

返回
发新帖