谁是超级英雄[简繁字幕].Super.Heros.Malgre.Lui.2021.BluRay.1080p.DTS-HD.MA5.1.x265.10bit-ALT 5.68GB

版主小s 4天前 84

✔资源类型:暂未分类   ✔电影年份:2022   ✔电影地区:其他   ✔电影分类:喜剧

◎标  题 谁是超级英雄
◎译  名 Superwho?
◎片  名 Super-héros malgré lui
◎年  代 2022
◎产  地 法国 / 比利时
◎类  别 喜剧 / 动作
◎语  言 法语
◎上映日期 2022-02-09(法国)
◎IMDb评分 5.9/10 (732人评价)
◎IMDb链接 https://www.imdb.com/title/tt13774454/
◎豆瓣评分 7.4/10 (1909人评价)
◎豆瓣链接 https://movie.douban.com/subject/35212079/
◎片  长 82分钟(法国)
◎导  演 菲利普·拉肖 Philippe Lacheau
◎编  剧 朱利安·阿鲁蒂 Julien Arruti
       皮埃尔·迪当 Pierre Dudan
       菲利普·拉肖 Philippe Lacheau
       皮埃尔·拉苏 Pierre Lacheau
◎演  员 菲利普·拉肖 Philippe Lacheau
       阿马尔·维克德 Amr Waked
       让·雨果·安格拉德 Jean-Hugues Anglade
       艾洛蒂·丰唐 Élodie Fontan
       乔治斯·科拉菲斯 Georges Corraface
       塔雷克·布达里 Tarek Boudali
       布鲁诺·洛歇 Bruno Lochet
       Michel Crémadès Michel Crémadès
       菲烈·卡特林 Philippe Katerine
       爱丽丝·杜富尔 Alice Dufour
       朱利安·阿鲁蒂 Julien Arruti

◎简  介
  A struggling actor who seems doomed to lead the life of a loser. When finally gets a lead role as a superhero named "Badman," he feels like everything is possible but fate strikes again.
  1. ##### MediaInfo ######
  2. General
  3. Unique ID                                : 158651797543153994182534242375137571644 (0x775B3989FF510D51AE807C6C0D61333C)
  4. Complete name                            : Super.Heros.Malgre.Lui.2021.BluRay.1080p.DTS-HD.MA5.1.x265.10bit-ALT.mkv
  5. Format                                   : Matroska
  6. Format version                           : Version 4
  7. File size                                : 5.68 GiB
  8. Duration                                 : 1 h 22 min
  9. Overall bit rate mode                    : Variable
  10. Overall bit rate                         : 9 885 kb/s
  11. Movie name                               : SUPER HERO MALGRE LUI
  12. Encoded date                             : UTC 2022-06-23 06:35:09
  13. Writing application                      : mkvmerge v49.0.0 ('Sick Of Losing Soulmates') 64-bit
  14. Writing library                          : libebml v1.4.0 + libmatroska v1.6.1
  15. Cover                                    : Yes
  16. Attachments                              : cover.jpg
  17. Video
  18. ID                                       : 1
  19. Format                                   : HEVC
  20. Format/Info                              : High Efficiency Video Coding
  21. Format profile                           : Main 10@L5.1@High
  22. Codec ID                                 : V_MPEGH/ISO/HEVC
  23. Duration                                 : 1 h 22 min
  24. Bit rate                                 : 5 863 kb/s
  25. Width                                    : 1 920 pixels
  26. Height                                   : 802 pixels
  27. Display aspect ratio                     : 2.40:1
  28. Frame rate mode                          : Constant
  29. Frame rate                               : 24.000 FPS
  30. Color space                              : YUV
  31. Chroma subsampling                       : 4:2:0
  32. Bit depth                                : 10 bits
  33. Bits/(Pixel*Frame)                       : 0.159
  34. Stream size                              : 3.37 GiB (59%)
  35. Title                                    : HEVC, x265Main10@L5.1@High, 24 fps @ 5862 kbps
  36. Writing library                          : x265 3.5+36-1f2c8da77:[Windows][GCC 11.2.0][64 bit] 10bit
  37. Encoding settings                        : cpuid=533541111039 / frame-threads=4 / numa-pools=16 / wpp / no-pmode / no-pme / no-psnr / no-ssim / log-level=2 / input-csp=1 / input-res=1920x802 / interlace=0 / total-frames=118542 / level-idc=51 / high-tier=1 / uhd-bd=0 / ref=5 / no-allow-non-conformance / no-repeat-headers / annexb / no-aud / no-eob / no-eos / no-hrd / info / hash=0 / no-temporal-layers / open-gop / min-keyint=24 / keyint=240 / gop-lookahead=0 / bframes=6 / b-adapt=2 / b-pyramid / bframe-bias=0 / rc-lookahead=40 / lookahead-slices=0 / NTMzNTQ=uuDQuD2mJt9fsCf / scenecut=40 / no-hist-scenecut / radl=0 / no-splice / no-intra-refresh / ctu=32 / min-cu-size=8 / no-rect / no-amp / max-tu-size=32 / tu-inter-depth=3 / tu-intra-depth=3 / limit-tu=4 / rdoq-level=2 / dynamic-rd=0.00 / no-ssim-rd / signhide / no-tskip / nr-intra=0 / nr-inter=0 / no-constrained-intra / no-strong-intra-smoothing / max-merge=4 / limit-refs=1 / limit-modes / me=3 / subme=4 / merange=25 / temporal-mvp / no-frame-dup / no-hme / weightp / weightb / no-analyze-src-pics / deblock=-3:-3 / no-sao / no-sao-non-deblock / rd=6 / selective-sao=0 / no-early-skip / rskip / no-fast-intra / no-tskip-fast / no-cu-lossless / b-intra / no-splitrd-skip / rdpenalty=0 / psy-rd=2.00 / psy-rdoq=1.00 / no-rd-refine / no-lossless / cbqpoffs=-2 / crqpoffs=-2 / rc=crf / crf=17.0 / qcomp=0.65 / qpstep=4 / stats-write=0 / stats-read=0 / vbv-maxrate=80000 / vbv-bufsize=80000 / vbv-init=0.9 / min-vbv-fullness=50.0 / max-vbv-fullness=80.0 / crf-max=0.0 / crf-min=0.0 / ipratio=1.40 / pbratio=1.30 / aq-mode=2 / aq-strength=0.85 / cutree / zone-count=0 / no-strict-cbr / qg-size=32 / no-rc-grain / qpmax=69 / qpmin=0 / no-const-vbv / sar=1 / overscan=0 / videoformat=5 / range=0 / colorprim=1 / transfer=1 / colormatrix=1 / chromaloc=0 / display-window=0 / cll=0,0 / min-luma=0 / max-luma=1023 / log2-max-poc-lsb=8 / vui-timing-info / vui-hrd-info / slices=1 / no-opt-qp-pps / no-opt-ref-list-length-pps / no-multi-pass-opt-rps / scenecut-bias=0.05 / hist-threshold=0.03 / no-opt-cu-delta-qp / no-aq-motion / no-hdr10 / no-hdr10-opt / no-dhdr10-opt / no-idr-recovery-sei / analysis-reuse-level=0 / analysis-save-reuse-level=0 / analysis-load-reuse-level=0 / scale-factor=0 / refine-intra=0 / refine-inter=0 / refine-mv=1 / refine-ctu-distortion=0 / no-limit-sao / ctu-info=0 / no-lowpass-dct / refine-analysis-type=0 / copy-pic=1 / max-ausize-factor=1.0 / no-dynamic-refine / no-single-sei / no-hevc-aq / no-svt / no-field / qp-adaptation-range=1.00 / scenecut-aware-qp=0conformance-window-offsets / right=0 / bottom=0 / NTMzNTQ= / decoder-max-rate=0 / no-vbv-live-multi-pass
  38. Language                                 : English
  39. Default                                  : Yes
  40. Forced                                   : No
  41. Color range                              : Limited
  42. Color primaries                          : BT.709
  43. Transfer characteristics                 : BT.709
  44. Matrix coefficients                      : BT.709
  45. Audio
  46. ID                                       : 2
  47. ID in the original source medium         : 4353 (0x1101)
  48. Format                                   : DTS XLL
  49. Format/Info                              : Digital Theater Systems
  50. Commercial name                          : DTS-HD Master Audio
  51. Codec ID                                 : A_DTS
  52. Duration                                 : 1 h 22 min
  53. Bit rate mode                            : Variable
  54. Bit rate                                 : 3 895 kb/s
  55. Channel(s)                               : 6 channels
  56. Channel layout                           : C L R Ls Rs LFE
  57. Sampling rate                            : 48.0 kHz
  58. Frame rate                               : 93.750 FPS (512 SPF)
  59. Bit depth                                : 24 bits
  60. Compression mode                         : Lossless
  61. Stream size                              : 2.24 GiB (39%)
  62. Title                                    : French DTS-HD Master Audio 5.1 @ 3895 kbps
  63. Language                                 : French
  64. Default                                  : Yes
  65. Forced                                   : No
  66. Original source medium                   : Blu-ray
  67. Text #1
  68. ID                                       : 3
  69. ID in the original source medium         : 4608 (0x1200)
  70. Format                                   : PGS
  71. Codec ID                                 : S_HDMV/PGS
  72. Codec ID/Info                            : Picture based subtitle format used on BDs/HD-DVDs
  73. Duration                                 : 1 h 22 min
  74. Bit rate                                 : 33.8 kb/s
  75. Count of elements                        : 2505
  76. Stream size                              : 19.8 MiB (0%)
  77. Title                                    : Fre/SUP
  78. Language                                 : French
  79. Default                                  : No
  80. Forced                                   : No
  81. Original source medium                   : Blu-ray
  82. Text #2
  83. ID                                       : 4
  84. Format                                   : PGS
  85. Codec ID                                 : S_HDMV/PGS
  86. Codec ID/Info                            : Picture based subtitle format used on BDs/HD-DVDs
  87. Duration                                 : 1 h 16 min
  88. Bit rate                                 : 48.5 kb/s
  89. Count of elements                        : 1998
  90. Stream size                              : 26.7 MiB (0%)
  91. Title                                    : Chs/SUP  简法双语
  92. Language                                 : Chinese
  93. Default                                  : Yes
  94. Forced                                   : No
  95. Text #3
  96. ID                                       : 5
  97. Format                                   : PGS
  98. Codec ID                                 : S_HDMV/PGS
  99. Codec ID/Info                            : Picture based subtitle format used on BDs/HD-DVDs
  100. Duration                                 : 1 h 16 min
  101. Bit rate                                 : 48.7 kb/s
  102. Count of elements                        : 1998
  103. Stream size                              : 26.7 MiB (0%)
  104. Title                                    : Cht/SUP  繁法双语
  105. Language                                 : Chinese
  106. Default                                  : No
  107. Forced                                   : No
  108. Menu
  109. 00:00:00.000                             : en:Chapter 01
  110. 00:06:33.291                             : en:Chapter 02
  111. 00:13:30.541                             : en:Chapter 03
  112. 00:20:53.791                             : en:Chapter 04
  113. 00:32:05.833                             : en:Chapter 05
  114. 00:37:02.666                             : en:Chapter 06
  115. 00:42:30.833                             : en:Chapter 07
  116. 00:48:20.541                             : en:Chapter 08
  117. 00:54:59.708                             : en:Chapter 09
  118. 01:02:49.000                             : en:Chapter 10
  119. 01:10:47.083                             : en:Chapter 11
  120. 01:18:04.625                             : en:Chapter 12



此处一般会放置磁力链或种子下载链接,不过此链接需要注册会员才能看到,点击“立即注册”
磁力链下载【下载链接仅对注册会员开放,登陆后可见】
BT9527电影天堂 1、BT9527电影天堂提供的BT文件均来源于互联网抓取,只供网友学习交流、技术提升使用。
2、我们遵守BitTorrent点对点协议原则,任何版权问题请联系原资源发布商,我们不处理任何版权纠纷,谢谢!如有争议请联系邮箱:BT9527#hotmail.com(#换成@)
3、如果您发现某页面或地址有错误,请联系站长邮箱BT9527#hotmail.com(#换成@),我们会尽快处理。您的热心是对BT9527电影天堂最大的支持。
4、本站建议去正规影院观看电影以支持电影行业发展。
最新回复 (0)

你可以在 登录 or 注册 后,对此帖发表评论!

返回
发新帖