感官世界[中英字幕].In.The.Realm.of.the.Senses.1976.BluRay.1080p.x265.10bit.2Audio-MiniHD 5.56GB

版主小s 7天前 555

电影年份:更 早  电影地区:其他   电影分类:爱情



◎标  题 感官世界
◎译  名 感官王国 / 官能王国 / In the Realm of the Senses
◎片  名 愛のコリーダ
◎年  代 1976
◎产  地 法国 / 日本
◎类  别 爱情 / 惊悚 / 情色
◎语  言 日语
◎上映日期 1977年4月1日
◎IMDb评分 6.6/10 (19638人评价)
◎IMDb链接 https://www.imdb.com/title/tt0074102/
◎豆瓣评分 6.9/10 (80455人评价)
◎豆瓣链接 https://movie.douban.com/subject/1292790/
◎片  长 109 分钟
◎导  演 大岛渚
◎编  剧 大岛渚
◎演  员 藤龙也
       松田英子
       松井康子
       芹明香
       小林加奈枝

◎简  介
  红透京都的艺妓阿部定(松田英子 饰)从良成为某户富人家的佣人后,被男主人石田吉藏(达也富士 饰)看上,而他的英俊、风流和潇洒也让阿部定倾倒,两人在短短时间内陷入肉欲之欢中难以自拔。为更酣畅地体验到性爱的快感,阿部定和石田吉藏私奔到一家旅馆,开始了更大胆更狂妄更旁若无人的交合, 令旅馆上下为之目瞪口呆。而在渐渐感觉不到性爱的乐趣后,他们开始追求类似死亡的高潮,两人的交欢逐渐演变成一种旁人无法理解的爱与死亡并存的仪式。

  1. ##### MediaInfo ######
  2. General
  3. Unique ID                                : 319118573883079788228516919818467405672 (0xF01400710F568F000D29552E8DABEF68)
  4. Complete name                            : In.The.Realm.of.the.Senses.1976.BluRay.1080p.x265.10bit.2Audio-MiniHD.mkv
  5. Format                                   : Matroska
  6. Format version                           : Version 4
  7. File size                                : 5.56 GiB
  8. Duration                                 : 1 h 42 min
  9. Overall bit rate                         : 7 775 kb/s
  10. Encoded date                             : UTC 2018-07-03 03:00:11
  11. Writing application                      : mkvmerge v24.0.0 ('Beyond The Pale') 64-bit
  12. Writing library                          : libebml v1.3.6 + libmatroska v1.4.9
  13. Video
  14. ID                                       : 1
  15. Format                                   : HEVC
  16. Format/Info                              : High Efficiency Video Coding
  17. Format profile                           : Main 10@L4@Main
  18. Codec ID                                 : V_MPEGH/ISO/HEVC
  19. Duration                                 : 1 h 42 min
  20. Bit rate                                 : 6 903 kb/s
  21. Width                                    : 1 792 pixels
  22. Height                                   : 1 080 pixels
  23. Display aspect ratio                     : 5:3
  24. Frame rate mode                          : Constant
  25. Frame rate                               : 23.976 (24000/1001/53354) FPS
  26. Color space                              : YUV
  27. Chroma subsampling                       : 4:2:0
  28. Bit depth                                : 10 bits
  29. Bits/(Pixel*Frame)                       : 0.149
  30. Stream size                              : 4.94 GiB (89%)
  31. Writing library                          : x265 2.7+1-2aa737a99f51:[Windows][GCC 7.3.0][64 bit] 10bit
  32. Encoding settings                        : cpuid=533541173503 / frame-threads=4 / numa-pools=16 / wpp / no-pmode / no-pme / no-psnr / no-ssim / log-level=2 / input-csp=1 / input-res=1792x1080 / interlace=0 / total-frames=147337 / level-idc=0 / high-tier=1 / uhd-bd=0 / ref=5 / no-allow-non-conformance / no-repeat-headers / annexb / no-aud / no-hrd / info / hash=0 / no-temporal-layers / no-open-gop / min-keyint=1 / keyint=360 / gop-lookahead=0 / bframes=8 / b-adapt=2 / b-pyramid / bframe-bias=0 / rc-lookahead=60 / lookahead-slices=4 / NTMzNTQ=uuDQuD2mJt9fsCf / scenecut=40 / radl=0 / no-intra-refresh / ctu=32 / min-cu-size=8 / rect / no-amp / max-tu-size=16 / tu-inter-depth=2 / tu-intra-depth=2 / limit-tu=4 / rdoq-level=1 / dynamic-rd=0.00 / no-ssim-rd / signhide / no-tskip / nr-intra=0 / nr-inter=0 / no-constrained-intra / no-strong-intra-smoothing / max-merge=3 / limit-refs=2 / limit-modes / me=3 / subme=5 / merange=25 / temporal-mvp / weightp / weightb / no-analyze-src-pics / deblock=-1:-1 / no-sao / no-sao-non-deblock / rd=4 / no-early-skip / rskip / no-fast-intra / no-tskip-fast / no-cu-lossless / b-intra / no-splitrd-skip / rdpenalty=1 / psy-rd=2.00 / psy-rdoq=5.00 / no-rd-refine / no-lossless / cbqpoffs=-2 / crqpoffs=-2 / rc=crf / crf=21.0 / qcomp=0.65 / qpstep=4 / stats-write=0 / stats-read=0 / ipratio=1.40 / pbratio=1.30 / aq-mode=1 / aq-strength=0.70 / cutree / zone-count=0 / no-strict-cbr / qg-size=16 / no-rc-grain / qpmax=69 / qpmin=0 / no-const-vbv / sar=1 / overscan=0 / videoformat=5 / range=0 / colorprim=1 / transfer=2 / colormatrix=2 / chromaloc=0 / display-window=0 / max-cll=0,0 / min-luma=0 / max-luma=1023 / log2-max-poc-lsb=8 / vui-timing-info / vui-hrd-info / slices=1 / no-opt-qp-pps / no-opt-ref-list-length-pps / no-multi-pass-opt-rps / scenecut-bias=0.05 / no-opt-cu-delta-qp / no-aq-motion / no-hdr / no-hdr-opt / no-dhdr10-opt / analysis-reuse-level=5 / scale-factor=0 / refine-intra=0 / refine-inter=0 / refine-mv=0 / no-limit-sao / ctu-info=0 / no-lowpass-dct / refine-mv-type=0 / copy-pic=1
  33. Default                                  : Yes
  34. Forced                                   : No
  35. Color range                              : Limited
  36. Color primaries                          : BT.709
  37. Audio #1
  38. ID                                       : 2
  39. Format                                   : AC-3
  40. Format/Info                              : Audio Coding 3
  41. Commercial name                          : Dolby Digital
  42. Codec ID                                 : A_AC3
  43. Duration                                 : 1 h 42 min
  44. Bit rate mode                            : Constant
  45. Bit rate                                 : 640 kb/s
  46. Channel(s)                               : 1 channel
  47. Channel layout                           : C
  48. Sampling rate                            : 48.0 kHz
  49. Frame rate                               : 31.250 FPS (1536 SPF)
  50. Compression mode                         : Lossy
  51. Stream size                              : 469 MiB (8%)
  52. Language                                 : Japanese
  53. Service kind                             : Complete Main
  54. Default                                  : No
  55. Forced                                   : No
  56. Audio #2
  57. ID                                       : 3
  58. Format                                   : AC-3
  59. Format/Info                              : Audio Coding 3
  60. Commercial name                          : Dolby Digital
  61. Codec ID                                 : A_AC3
  62. Duration                                 : 1 h 42 min
  63. Bit rate mode                            : Constant
  64. Bit rate                                 : 192 kb/s
  65. Channel(s)                               : 1 channel
  66. Channel layout                           : C
  67. Sampling rate                            : 48.0 kHz
  68. Frame rate                               : 31.250 FPS (1536 SPF)
  69. Compression mode                         : Lossy
  70. Stream size                              : 141 MiB (2%)
  71. Language                                 : English
  72. Service kind                             : Complete Main
  73. Default                                  : Yes
  74. Forced                                   : No
  75. Text #1
  76. ID                                       : 4
  77. Format                                   : PGS
  78. Muxing mode                              : zlib
  79. Codec ID                                 : S_HDMV/PGS
  80. Codec ID/Info                            : Picture based subtitle format used on BDs/HD-DVDs
  81. Duration                                 : 1 h 39 min
  82. Bit rate                                 : 24.0 kb/s
  83. Count of elements                        : 1651
  84. Stream size                              : 17.1 MiB (0%)
  85. Language                                 : English
  86. Default                                  : Yes
  87. Forced                                   : No
  88. Text #2
  89. ID                                       : 5
  90. Format                                   : PGS
  91. Muxing mode                              : zlib
  92. Codec ID                                 : S_HDMV/PGS
  93. Codec ID/Info                            : Picture based subtitle format used on BDs/HD-DVDs
  94. Duration                                 : 1 h 41 min
  95. Bit rate                                 : 14.0 kb/s
  96. Count of elements                        : 1542
  97. Stream size                              : 10.2 MiB (0%)
  98. Language                                 : Chinese
  99. Default                                  : No
  100. Forced                                   : No
  101. Text #3
  102. ID                                       : 6
  103. Format                                   : PGS
  104. Muxing mode                              : zlib
  105. Codec ID                                 : S_HDMV/PGS
  106. Codec ID/Info                            : Picture based subtitle format used on BDs/HD-DVDs
  107. Duration                                 : 1 h 39 min
  108. Bit rate                                 : 20.2 kb/s
  109. Count of elements                        : 1376
  110. Stream size                              : 14.4 MiB (0%)
  111. Language                                 : Chinese
  112. Default                                  : No
  113. Forced                                   : No
  114. Text #4
  115. ID                                       : 7
  116. Format                                   : PGS
  117. Muxing mode                              : zlib
  118. Codec ID                                 : S_HDMV/PGS
  119. Codec ID/Info                            : Picture based subtitle format used on BDs/HD-DVDs
  120. Duration                                 : 1 h 39 min
  121. Bit rate                                 : 20.8 kb/s
  122. Count of elements                        : 1376
  123. Stream size                              : 14.8 MiB (0%)
  124. Language                                 : Chinese
  125. Default                                  : No
  126. Forced                                   : No
  127. Menu
  128. 00:00:00.000                             : en:Chapter 01 / en:第 01 章
  129. 00:04:04.160                             : en:Chapter 02
  130. 00:07:24.026                             : en:Chapter 03
  131. 00:11:10.628                             : en:Chapter 04
  132. 00:14:45.467                             : en:Chapter 05
  133. 00:19:59.198                             : en:Chapter 06
  134. 00:22:30.932                             : en:Chapter 07
  135. 00:24:57.996                             : en:Chapter 08
  136. 00:30:27.992                             : en:Chapter 09
  137. 00:34:29.650                             : en:Chapter 10
  138. 00:37:51.269                             : en:Chapter 11
  139. 00:40:31.220                             : en:Chapter 12
  140. 00:45:26.890                             : en:Chapter 13
  141. 00:50:24.146                             : en:Chapter 14
  142. 00:55:27.282                             : en:Chapter 15
  143. 00:58:07.025                             : en:Chapter 16
  144. 01:01:17.423                             : en:Chapter 17
  145. 01:05:21.709                             : en:Chapter 18
  146. 01:10:30.684                             : en:Chapter 19
  147. 01:17:37.611                             : en:Chapter 20
  148. 01:20:25.487                             : en:Chapter 21
  149. 01:26:59.214                             : en:Chapter 22
  150. 01:29:28.529                             : en:Chapter 23
  151. 01:36:23.861                             : en:Chapter 24






此处一般会放置磁力链或种子下载链接,不过此链接需要注册会员才能看到,点击“立即注册”
磁力链下载【下载链接仅对注册会员开放,登陆后可见】

BT9527电影天堂 1、BT9527电影天堂提供的BT文件均来源于互联网抓取,只供网友学习交流、技术提升使用。
2、我们遵守BitTorrent点对点协议原则,任何版权问题请联系原资源发布商,我们不处理任何版权纠纷,谢谢!如有争议请联系邮箱:BT9527#hotmail.com(#换成@)
3、如果您发现某页面或地址有错误,请联系站长邮箱BT9527#hotmail.com(#换成@),我们会尽快处理。您的热心是对BT9527电影天堂最大的支持。
4、本站建议去正规影院观看电影以支持电影行业发展。
最新回复 (10)
  • rtv100 7天前
    2
    此片不比现在的AV差,很有看头
  • chen1026241686 7天前
    3
    看截图都这么刺激
  • qiaodan023 4天前
    4
    下载链接打不开啊?
  • 版主小s 4天前
    5
    qiaodan023 下载链接打不开啊?

    经检查种子下载链接无任何问题,自查

    感官世界[中英字幕].In.The.Realm.of.the.Senses.1976.BluRay.1080p.x265.10bit.2Audio-MiniHD 5.56GB

  • 华山 4天前
    6
    很多的种子链接都打不开,真的!
  • qiaodan023 4天前
    7


    感官世界[中英字幕].In.The.Realm.of.the.Senses.1976.BluRay.1080p.x265.10bit.2Audio-MiniHD 5.56GB
    感官世界[中英字幕].In.The.Realm.of.the.Senses.1976.BluRay.1080p.x265.10bit.2Audio-MiniHD 5.56GB

    这一类的都这样。

  • 咘咘 4天前
    8
    作者大大,这个真的打不开
  • 魔女时尚 3天前
    9
    这几天的种子是什么情况?种子打不开!
  • 版主小s 3天前
    10
    qiaodan023 这一类的都这样。
    再试试看
  • qiaodan023 3天前
    11

    好了,谢谢!

你可以在 登录 or 注册 后,对此帖发表评论!

返回
发新帖