独身向前[中文字幕].Seuls.2017.BluRay.1080p.x265.10bit-MiniHD 2.10GB

版主小s 7天前 60

✔资源类型:暂未分类   ✔电影年份:2017   ✔电影地区:其他   ✔电影分类:科幻

◎标  题 独身向前
◎译  名 失落地带(台) / Alone
◎片  名 Seuls
◎年  代 2017
◎产  地 法国 / 比利时
◎类  别 科幻 / 奇幻
◎语  言 法语
◎上映日期 2017-02-08(法国)
◎IMDb评分 5.1/10 (1595人评价)
◎IMDb链接 https://www.imdb.com/title/tt3838034/
◎豆瓣评分 4.6/10 (790人评价)
◎豆瓣链接 https://movie.douban.com/subject/26944589/
◎片  长 97分钟
◎导  演 大卫·莫罗 David Moreau
◎编  剧 大卫·莫罗 David Moreau
◎演  员 让-斯坦·杜·帕克 Jean-Stan Du Pac
       托马斯·多雷 Thomas Doret
       罗宾·库德特 Robin Coudert

◎简  介
  莉拉16岁的早晨,就跟往常一样,不小心贪睡了一点,但今天稍微有些不一样,没人敲她房门催促她快点起床。等她终于清醒,却遍寻不着她的父母。莉拉出门却发现不但邻居、整个小镇、社区甚至整个城市,都找不到半个活生生的人影,所有的人都消失了。面对宛如世界末日的情景,莉拉陷入了自己是某场灾难唯一幸存者的恐慌,然而,在她跌跌撞撞的同时,她终于和其他4名青少年相遇了……                                    
                                5名少年少女试着在寂静无声的世界生存,然而,究竟是什么原因带走了其他人?又有什么潜伏在暗处,兴味盎然地观察着他们呢?
  1. ##### MediaInfo ######
  2. General
  3. Unique ID                                : 337066879834096688108874155447964361343 (0xFD94B83F2299DEA91BA31ACE7693627F)
  4. Complete name                            : Seuls.2017.BluRay.1080p.x265.10bit-MiniHD.mkv
  5. Format                                   : Matroska
  6. Format version                           : Version 4
  7. File size                                : 2.10 GiB
  8. Duration                                 : 1 h 37 min
  9. Overall bit rate                         : 3 076 kb/s
  10. Encoded date                             : UTC 2018-03-01 03:10:02
  11. Writing application                      : mkvmerge v20.0.0 ('I Am The Sun') 32-bit
  12. Writing library                          : libebml v1.3.5 + libmatroska v1.4.8
  13. Video
  14. ID                                       : 1
  15. Format                                   : HEVC
  16. Format/Info                              : High Efficiency Video Coding
  17. Format profile                           : Main 10@L4@Main
  18. Codec ID                                 : V_MPEGH/ISO/HEVC
  19. Duration                                 : 1 h 37 min
  20. Bit rate                                 : 2 402 kb/s
  21. Width                                    : 1 920 pixels
  22. Height                                   : 800 pixels
  23. Display aspect ratio                     : 2.40:1
  24. Frame rate mode                          : Constant
  25. Frame rate                               : 24.000 FPS
  26. Color space                              : YUV
  27. Chroma subsampling                       : 4:2:0
  28. Bit depth                                : 10 bits
  29. Bits/(Pixel*Frame)                       : 0.065
  30. Stream size                              : 1.64 GiB (78%)
  31. Writing library                          : x265 2.5+14-2718cb5dd67f:[Windows][GCC 7.1.0][64 bit] 10bit
  32. Encoding settings                        : cpuid=533541173503 / frame-threads=5 / numa-pools=36 / wpp / no-pmode / no-pme / no-psnr / no-ssim / log-level=2 / csvfn=D:\bdrip\Seuls2017.log / csv-log-level=0 / input-csp=1 / input-res=1920x800 / interlace=0 / total-frames=140496 / level-idc=0 / high-tier=1 / uhd-bd=0 / ref=5 / no-allow-non-conformance / no-repeat-headers / annexb / no-aud / no-hrd / info / hash=0 / no-temporal-layers / no-open-gop / min-keyint=1 / keyint=360 / bframes=9 / b-adapt=2 / b-pyramid / bframe-bias=0 / rc-lookahead=60 / lookahead-slices=4 / NTMzNTQ=uuDQuD2mJt9fsCf / scenecut=40 / no-intra-refresh / ctu=32 / min-cu-size=8 / no-rect / no-amp / max-tu-size=16 / tu-inter-depth=2 / tu-intra-depth=2 / limit-tu=4 / rdoq-level=2 / dynamic-rd=0.00 / ssim-rd / signhide / no-tskip / nr-intra=0 / nr-inter=0 / no-constrained-intra / no-strong-intra-smoothing / max-merge=3 / limit-refs=2 / limit-modes / me=3 / subme=5 / merange=25 / temporal-mvp / weightp / weightb / no-analyze-src-pics / deblock=-1:-1 / no-sao / no-sao-non-deblock / rd=4 / no-early-skip / no-rskip / no-fast-intra / no-tskip-fast / no-cu-lossless / b-intra / no-splitrd-skip / rdpenalty=1 / psy-rd=0.00 / psy-rdoq=5.00 / no-rd-refine / analysis-reuse-mode=0 / no-lossless / cbqpoffs=-1 / crqpoffs=-1 / rc=crf / crf=18.0 / qcomp=0.70 / qpstep=4 / stats-write=0 / stats-read=0 / ipratio=1.40 / pbratio=1.30 / aq-mode=2 / aq-strength=0.80 / cutree / zone-count=0 / no-strict-cbr / qg-size=16 / no-rc-grain / qpmax=69 / qpmin=0 / no-const-vbv / sar=0 / overscan=0 / videoformat=5 / range=0 / colorprim=1 / transfer=2 / colormatrix=2 / chromaloc=0 / display-window=0 / max-cll=0,0 / min-luma=0 / max-luma=1023 / log2-max-poc-lsb=8 / vui-timing-info / vui-hrd-info / slices=1 / opt-qp-pps / opt-ref-list-length-pps / no-multi-pass-opt-rps / scenecut-bias=0.05 / no-opt-cu-delta-qp / no-aq-motion / no-hdr / no-hdr-opt / no-dhdr10-opt / analysis-reuse-level=5 / scale-factor=0 / refine-intra=0 / refine-inter=0 / refine-mv=0 / no-limit-sao / ctu-info=0
  33. Default                                  : Yes
  34. Forced                                   : No
  35. Color range                              : Limited
  36. Color primaries                          : BT.709
  37. Audio
  38. ID                                       : 2
  39. Format                                   : AC-3
  40. Format/Info                              : Audio Coding 3
  41. Commercial name                          : Dolby Digital
  42. Codec ID                                 : A_AC3
  43. Duration                                 : 1 h 37 min
  44. Bit rate mode                            : Constant
  45. Bit rate                                 : 640 kb/s
  46. Channel(s)                               : 6 channels
  47. Channel layout                           : L R C LFE Ls Rs
  48. Sampling rate                            : 48.0 kHz
  49. Frame rate                               : 31.250 FPS (1536 SPF)
  50. Compression mode                         : Lossy
  51. Stream size                              : 447 MiB (21%)
  52. Language                                 : French
  53. Service kind                             : Complete Main
  54. Default                                  : Yes
  55. Forced                                   : No
  56. Text #1
  57. ID                                       : 3
  58. Format                                   : PGS
  59. Muxing mode                              : zlib
  60. Codec ID                                 : S_HDMV/PGS
  61. Codec ID/Info                            : Picture based subtitle format used on BDs/HD-DVDs
  62. Duration                                 : 1 h 36 min
  63. Bit rate                                 : 20.1 kb/s
  64. Count of elements                        : 2400
  65. Stream size                              : 14.0 MiB (1%)
  66. Language                                 : French
  67. Default                                  : Yes
  68. Forced                                   : No
  69. Text #2
  70. ID                                       : 4
  71. Format                                   : PGS
  72. Muxing mode                              : zlib
  73. Codec ID                                 : S_HDMV/PGS
  74. Codec ID/Info                            : Picture based subtitle format used on BDs/HD-DVDs
  75. Duration                                 : 1 h 29 min
  76. Bit rate                                 : 21.5 kb/s
  77. Count of elements                        : 2063
  78. Stream size                              : 13.8 MiB (1%)
  79. Language                                 : Chinese
  80. Default                                  : No
  81. Forced                                   : No
  82. Text #3
  83. ID                                       : 5
  84. Format                                   : PGS
  85. Muxing mode                              : zlib
  86. Codec ID                                 : S_HDMV/PGS
  87. Codec ID/Info                            : Picture based subtitle format used on BDs/HD-DVDs
  88. Duration                                 : 1 h 29 min
  89. Bit rate                                 : 22.8 kb/s
  90. Count of elements                        : 2063
  91. Stream size                              : 14.6 MiB (1%)
  92. Language                                 : Chinese
  93. Default                                  : No
  94. Forced                                   : No
  95. Menu
  96. 00:00:00.000                             : en:Chapter 01
  97. 00:08:17.583                             : en:Chapter 02
  98. 00:16:23.750                             : en:Chapter 03
  99. 00:24:09.000                             : en:Chapter 04
  100. 00:32:13.958                             : en:Chapter 05
  101. 00:40:42.333                             : en:Chapter 06
  102. 00:49:20.208                             : en:Chapter 07
  103. 00:57:03.666                             : en:Chapter 08
  104. 01:05:08.083                             : en:Chapter 09
  105. 01:11:29.125                             : en:Chapter 10
  106. 01:21:09.333                             : en:Chapter 11
  107. 01:27:16.083                             : en:Chapter 12





此处一般会放置磁力链或种子下载链接,不过此链接需要注册会员才能看到,点击“立即注册”
磁力链下载【下载链接仅对注册会员开放,登陆后可见】
BT9527电影天堂 1、BT9527电影天堂提供的BT文件均来源于互联网抓取,只供网友学习交流、技术提升使用。
2、我们遵守BitTorrent点对点协议原则,任何版权问题请联系原资源发布商,我们不处理任何版权纠纷,谢谢!如有争议请联系邮箱:BT9527#hotmail.com(#换成@)
3、如果您发现某页面或地址有错误,请联系站长邮箱BT9527#hotmail.com(#换成@),我们会尽快处理。您的热心是对BT9527电影天堂最大的支持。
4、本站建议去正规影院观看电影以支持电影行业发展。
最新回复 (0)

你可以在 登录 or 注册 后,对此帖发表评论!

返回
发新帖