稻草狗[中文字幕].Straw.Dogs.2011.1080p.BluRay.DTS.x265-10bit-ENTHD 7.36GB

版主小s 10天前 74

✔资源类型:暂未分类   ✔电影年份:2011   ✔电影地区:欧美   ✔电影分类:惊悚

◎标  题 稻草狗
◎片  名 Straw Dogs
◎年  代 2011
◎产  地 美国
◎类  别 惊悚
◎语  言 英语
◎上映日期 2011-09-16(美国)
◎IMDb评分 5.8/10 (33778人评价)
◎IMDb链接 https://www.imdb.com/title/tt0999913/
◎豆瓣评分 6.5/10 (6378人评价)
◎豆瓣链接 https://movie.douban.com/subject/3230125/
◎片  长 110分钟
◎导  演 罗德·拉里 Rod Lurie
◎编  剧 罗德·拉里 Rod Lurie
       萨姆·佩金帕 Sam Peckinpah
       戴维·泽拉·古德曼 David Zelag Goodman
◎演  员 詹姆斯·麦斯登 James Marsden
       凯特·波茨沃斯 Kate Bosworth
       亚历山大·斯卡斯加德 Alexander Skarsgård
       詹姆斯·伍兹 James Woods
       多米尼克·珀塞尔 Dominic Purcell
       瑞斯·考罗 Rhys Coiro
       比利·鲁什 Billy Lush
       拉兹·阿隆索 Laz Alonso
       薇拉·贺兰德 Willa Holland
       沃尔顿·戈金斯 Walton Goggins
       安松·蒙特 Anson Mount
       德鲁·鲍威尔 Drew Powell
        Megan Adelle
        Halley Rachal
       泰德·弗格森 Ted Ferguson
        Parker Dash
        Michael AvMen
        Stephanie Wittmann
        Clayton S. Taylor
        Grant Case
        Cara Little
        Allison Victoria
       Kelly Holleman Kelly Holleman
        Tim J. Smith
        Matthew Ramsaur
       Eddie Armes Eddie Armes

◎标  签 暴力 / 惊悚 / 犯罪 / 翻拍 / 美国电影 / 人性 / 2011 / 剧情

◎简  介
    大卫(詹姆斯·麦斯登 James Marsden 饰)是一位小有名气的剧作家,为了能有更好的创作环境,大卫携爱妻艾米(凯特·波茨沃斯 Kate Bosworth 饰)回到了风景宜人的南方老家。老家清新的空气和闲散的生活让两个疲惫的城市人感到十分的新奇,而在这靓丽的风景之下,原住民们对这对初来乍到的夫妻却并不能算得上友好。                                    
                                  秉着息事宁人的态度,大卫对来自外界的种种歧视选择了默默忍受,甚至在妻子被一名当地的建筑工人设计强暴之后,他也只是希望能够大事化小小事化了。可是,大卫的一味忍让换来的却是变本加厉的欺负,当一群“野蛮人”试图闯入他家时,曾经懦弱的大卫选择了拿起武器,为了保卫自己最后的家园而战。
  1. ##### MediaInfo ######
  2. General
  3. Unique ID                                : 159865651255364620438714135143062044760 (0x78450125CF113455143319AF586E0058)
  4. Complete name                            : Straw.Dogs.2011.1080p.BluRay.DTS.x265-10bit-ENTHD.mkv
  5. Format                                   : Matroska
  6. Format version                           : Version 4
  7. File size                                : 7.36 GiB
  8. Duration                                 : 1 h 49 min
  9. Overall bit rate                         : 9 599 kb/s
  10. Movie name                               : Straw Dogs 2011 1080p BluRay DTS x265-10bit-HDS
  11. Encoded date                             : UTC 2022-06-23 11:49:46
  12. Writing application                      : mkvmerge v67.0.0 ('Under Stars') 64-bit
  13. Writing library                          : libebml v1.4.2 + libmatroska v1.6.4
  14. Video
  15. ID                                       : 1
  16. Format                                   : HEVC
  17. Format/Info                              : High Efficiency Video Coding
  18. Format profile                           : Main 10@L5.1@High
  19. Codec ID                                 : V_MPEGH/ISO/HEVC
  20. Duration                                 : 1 h 49 min
  21. Bit rate                                 : 8 047 kb/s
  22. Width                                    : 1 920 pixels
  23. Height                                   : 800 pixels
  24. Display aspect ratio                     : 2.40:1
  25. Frame rate mode                          : Constant
  26. Frame rate                               : 23.976 (24000/1001/53354) FPS
  27. Color space                              : YUV
  28. Chroma subsampling                       : 4:2:0
  29. Bit depth                                : 10 bits
  30. Bits/(Pixel*Frame)                       : 0.219
  31. Stream size                              : 6.17 GiB (84%)
  32. Title                                    : @HDSky
  33. Writing library                          : x265 - H.265/HEVC codec
  34. Default                                  : Yes
  35. Forced                                   : No
  36. Audio
  37. ID                                       : 2
  38. Format                                   : DTS
  39. Format/Info                              : Digital Theater Systems
  40. Codec ID                                 : A_DTS
  41. Duration                                 : 1 h 49 min
  42. Bit rate mode                            : Constant
  43. Bit rate                                 : 1 509 kb/s
  44. Channel(s)                               : 6 channels
  45. Channel layout                           : C L R Ls Rs LFE
  46. Sampling rate                            : 48.0 kHz
  47. Frame rate                               : 93.750 FPS (512 SPF)
  48. Bit depth                                : 24 bits
  49. Compression mode                         : Lossy
  50. Stream size                              : 1.16 GiB (16%)
  51. Title                                    : English
  52. Language                                 : English
  53. Default                                  : Yes
  54. Forced                                   : No
  55. Text #1
  56. ID                                       : 3
  57. Format                                   : PGS
  58. Muxing mode                              : zlib
  59. Codec ID                                 : S_HDMV/PGS
  60. Codec ID/Info                            : Picture based subtitle format used on BDs/HD-DVDs
  61. Duration                                 : 1 h 42 min
  62. Bit rate                                 : 45.9 kb/s
  63. Count of elements                        : 3970
  64. Stream size                              : 33.5 MiB (0%)
  65. Title                                    : ENG
  66. Language                                 : English
  67. Default                                  : Yes
  68. Forced                                   : No
  69. Text #2
  70. ID                                       : 4
  71. Format                                   : PGS
  72. Muxing mode                              : zlib
  73. Codec ID                                 : S_HDMV/PGS
  74. Codec ID/Info                            : Picture based subtitle format used on BDs/HD-DVDs
  75. Duration                                 : 1 h 42 min
  76. Bit rate                                 : 28.2 kb/s
  77. Count of elements                        : 3976
  78. Stream size                              : 20.6 MiB (0%)
  79. Title                                    : CHS
  80. Language                                 : Chinese
  81. Default                                  : Yes
  82. Forced                                   : No
  83. Text #3
  84. ID                                       : 5
  85. Format                                   : PGS
  86. Muxing mode                              : zlib
  87. Codec ID                                 : S_HDMV/PGS
  88. Codec ID/Info                            : Picture based subtitle format used on BDs/HD-DVDs
  89. Duration                                 : 1 h 42 min
  90. Bit rate                                 : 28.9 kb/s
  91. Count of elements                        : 3976
  92. Stream size                              : 21.1 MiB (0%)
  93. Title                                    : CHS
  94. Language                                 : Chinese
  95. Default                                  : Yes
  96. Forced                                   : No
  97. Menu
  98. 00:00:00.000                             : en:第 01 章
  99. 00:09:51.674                             : en:第 02 章
  100. 00:15:05.988                             : en:第 03 章
  101. 00:21:54.563                             : en:第 04 章
  102. 00:27:53.130                             : en:第 05 章
  103. 00:35:26.916                             : en:第 06 章
  104. 00:43:26.187                             : en:第 07 章
  105. 00:47:38.105                             : en:第 08 章
  106. 00:54:21.925                             : en:第 09 章
  107. 00:58:04.564                             : en:第 10 章
  108. 01:05:47.777                             : en:第 11 章
  109. 01:12:08.157                             : en:第 12 章
  110. 01:19:26.553                             : en:第 13 章
  111. 01:25:03.390                             : en:第 14 章
  112. 01:29:27.988                             : en:第 15 章
  113. 01:37:12.035                             : en:第 16 章





此处一般会放置磁力链或种子下载链接,不过此链接需要注册会员才能看到,点击“立即注册”
磁力链下载【下载链接仅对注册会员开放,登陆后可见】
BT9527电影天堂 1、BT9527电影天堂提供的BT文件均来源于互联网抓取,只供网友学习交流、技术提升使用。
2、我们遵守BitTorrent点对点协议原则,任何版权问题请联系原资源发布商,我们不处理任何版权纠纷,谢谢!如有争议请联系邮箱:BT9527#hotmail.com(#换成@)
3、如果您发现某页面或地址有错误,请联系站长邮箱BT9527#hotmail.com(#换成@),我们会尽快处理。您的热心是对BT9527电影天堂最大的支持。
4、本站建议去正规影院观看电影以支持电影行业发展。
最新回复 (0)

你可以在 登录 or 注册 后,对此帖发表评论!

返回
发新帖