读书会[简繁英字幕].Book.Club.2018.1080p.BluRay.DTS.x265-10bit-ENTHD 5.39GB

版主小s 4天前 40

✔资源类型:暂未分类   ✔电影年份:2018   ✔电影地区:欧美   ✔电影分类:剧情

◎标  题 读书会
◎译  名 读书俱乐部 / 高年级姐妹会(台)
◎片  名 Book Club
◎年  代 2018
◎产  地 美国
◎类  别 剧情 / 喜剧 / 爱情
◎语  言 英语
◎上映日期 2018-05-18(美国)
◎IMDb评分 6.1/10 (27195人评价)
◎IMDb链接 https://www.imdb.com/title/tt6857166/
◎豆瓣评分 6.8/10 (4264人评价)
◎豆瓣链接 https://movie.douban.com/subject/27038254/
◎片  长 104分钟
◎导  演 比尔·霍德曼 Bill Holderman
◎编  剧 比尔·霍德曼 Bill Holderman
       艾琳·西姆斯 Erin Simms
◎演  员 艾丽西亚·希尔维斯通 Alicia Silverstone
       简·方达 Jane Fonda
       玛丽·斯汀伯根 Mary Steenburgen
       安迪·加西亚 Andy Garcia
       黛安·基顿 Diane Keaton
       坎迪斯·伯根 Candice Bergen
       理查德·德莱福斯 Richard Dreyfuss
       唐·约翰逊 Don Johnson
       华莱士·肖恩 Wallace Shawn
       莫洽·梦若 Mircea Monroe
       凯蒂·阿赛尔顿 Katie Aselton
       格雷格·T·尼尔森 Craig T. Nelson
       小艾德·博格里 Ed Begley Jr.
       汤米·杜威 Tommy Dewey
       丽丽·博尔丹 Lili Bordán
       克里斯塔尔·桑托斯 Crystal Santos

◎标  签 女性 / 喜剧 / 美国 / 爱情 / 老年 / 人生 / 2018 / 美国电影

◎简  介
  剧情讲述四个处于60几岁的终身之交朋友,在她们的每月读书俱乐部活动中,阅读了《五十度灰》,生活发生了翻天覆地的变化。
  1. ##### MediaInfo ######
  2. General
  3. Unique ID                                : 293131915797888989604419788538944095214 (0xDC87274720BC5834A609DE55389B03EE)
  4. Complete name                            : Book.Club.2018.1080p.BluRay.DTS.x265-10bit-ENTHD.mkv
  5. Format                                   : Matroska
  6. Format version                           : Version 4
  7. File size                                : 5.39 GiB
  8. Duration                                 : 1 h 43 min
  9. Overall bit rate                         : 7 440 kb/s
  10. Movie name                               : Book Club 2018 1080p BluRay DTS x265-10bit-HDS
  11. Encoded date                             : UTC 2022-06-23 14:35:37
  12. Writing application                      : mkvmerge v67.0.0 ('Under Stars') 64-bit
  13. Writing library                          : libebml v1.4.2 + libmatroska v1.6.4
  14. Video
  15. ID                                       : 1
  16. Format                                   : HEVC
  17. Format/Info                              : High Efficiency Video Coding
  18. Format profile                           : Main 10@L5.1@High
  19. Codec ID                                 : V_MPEGH/ISO/HEVC
  20. Duration                                 : 1 h 43 min
  21. Bit rate                                 : 5 864 kb/s
  22. Width                                    : 1 920 pixels
  23. Height                                   : 804 pixels
  24. Display aspect ratio                     : 2.40:1
  25. Frame rate mode                          : Constant
  26. Frame rate                               : 23.976 (24000/1001/53354) FPS
  27. Color space                              : YUV
  28. Chroma subsampling                       : 4:2:0
  29. Bit depth                                : 10 bits
  30. Bits/(Pixel*Frame)                       : 0.158
  31. Stream size                              : 4.25 GiB (79%)
  32. Title                                    : meyu@HDSky
  33. Writing library                          : x265 - H.265/HEVC codec
  34. Default                                  : Yes
  35. Forced                                   : No
  36. Audio
  37. ID                                       : 2
  38. Format                                   : DTS
  39. Format/Info                              : Digital Theater Systems
  40. Codec ID                                 : A_DTS
  41. Duration                                 : 1 h 43 min
  42. Bit rate mode                            : Constant
  43. Bit rate                                 : 1 509 kb/s
  44. Channel(s)                               : 6 channels
  45. Channel layout                           : C L R Ls Rs LFE
  46. Sampling rate                            : 48.0 kHz
  47. Frame rate                               : 93.750 FPS (512 SPF)
  48. Bit depth                                : 24 bits
  49. Compression mode                         : Lossy
  50. Stream size                              : 1.09 GiB (20%)
  51. Title                                    : English
  52. Language                                 : English
  53. Default                                  : Yes
  54. Forced                                   : No
  55. Text #1
  56. ID                                       : 3
  57. Format                                   : PGS
  58. Muxing mode                              : zlib
  59. Codec ID                                 : S_HDMV/PGS
  60. Codec ID/Info                            : Picture based subtitle format used on BDs/HD-DVDs
  61. Duration                                 : 1 h 36 min
  62. Bit rate                                 : 34.3 kb/s
  63. Count of elements                        : 3379
  64. Stream size                              : 23.7 MiB (0%)
  65. Title                                    : CHS
  66. Language                                 : Chinese
  67. Default                                  : Yes
  68. Forced                                   : No
  69. Text #2
  70. ID                                       : 4
  71. Format                                   : PGS
  72. Muxing mode                              : zlib
  73. Codec ID                                 : S_HDMV/PGS
  74. Codec ID/Info                            : Picture based subtitle format used on BDs/HD-DVDs
  75. Duration                                 : 1 h 36 min
  76. Bit rate                                 : 36.2 kb/s
  77. Count of elements                        : 3375
  78. Stream size                              : 25.0 MiB (0%)
  79. Title                                    : CHT
  80. Language                                 : Chinese
  81. Default                                  : Yes
  82. Forced                                   : No
  83. Text #3
  84. ID                                       : 5
  85. Format                                   : PGS
  86. Muxing mode                              : zlib
  87. Codec ID                                 : S_HDMV/PGS
  88. Codec ID/Info                            : Picture based subtitle format used on BDs/HD-DVDs
  89. Duration                                 : 1 h 36 min
  90. Bit rate                                 : 58.2 kb/s
  91. Count of elements                        : 3532
  92. Stream size                              : 40.2 MiB (1%)
  93. Title                                    : ENG
  94. Language                                 : English
  95. Default                                  : Yes
  96. Forced                                   : No
  97. Menu
  98. 00:00:00.000                             : en:第 01 章
  99. 00:09:32.572                             : en:第 02 章
  100. 00:17:58.494                             : en:第 03 章
  101. 00:28:37.174                             : en:第 04 章
  102. 00:37:45.430                             : en:第 05 章
  103. 00:46:38.629                             : en:第 06 章
  104. 00:53:34.461                             : en:第 07 章
  105. 01:02:36.586                             : en:第 08 章
  106. 01:13:06.757                             : en:第 09 章
  107. 01:21:36.183                             : en:第 10 章
  108. 01:31:12.634                             : en:第 11 章
  109. 01:37:14.662                             : en:第 12 章





此处一般会放置磁力链或种子下载链接,不过此链接需要注册会员才能看到,点击“立即注册”
磁力链下载【下载链接仅对注册会员开放,登陆后可见】
BT9527电影天堂 1、BT9527电影天堂提供的BT文件均来源于互联网抓取,只供网友学习交流、技术提升使用。
2、我们遵守BitTorrent点对点协议原则,任何版权问题请联系原资源发布商,我们不处理任何版权纠纷,谢谢!如有争议请联系邮箱:BT9527#hotmail.com(#换成@)
3、如果您发现某页面或地址有错误,请联系站长邮箱BT9527#hotmail.com(#换成@),我们会尽快处理。您的热心是对BT9527电影天堂最大的支持。
4、本站建议去正规影院观看电影以支持电影行业发展。
最新回复 (0)

你可以在 登录 or 注册 后,对此帖发表评论!

返回