黑雨[简繁英字幕].Black.Rain.1989.BluRay.1080p.DTS.ES.6.1.x265.10bit-ALT 11.59GB

版主小s 3月前 179

✔资源类型:暂未分类   ✔电影年份:更 早   ✔电影地区:欧美   ✔电影分类:动作

◎标  题 黑雨
◎片  名 Black Rain
◎年  代 1989
◎产  地 美国
◎类  别 动作 / 惊悚 / 犯罪
◎语  言 英语 / 日语
◎上映日期 1989-09-22
◎IMDb评分 6.7/10 (52725人评价)
◎IMDb链接 https://www.imdb.com/title/tt0096933/
◎豆瓣评分 7.3/10 (4455人评价)
◎豆瓣链接 https://movie.douban.com/subject/1298608/
◎片  长 125 分钟
◎导  演 雷德利·斯科特 Ridley Scott
◎编  剧 克雷格·博洛坦 Craig Bolotin
◎演  员 迈克尔·道格拉斯 Michael Douglas
       安迪·加西亚 Andy Garcia
       高仓健 Ken Takakura
       凯特·卡普肖 Kate Capshaw
       松田优作 Yusaku Matsuda
       若山富三郎 Tomisaburo Wakayama
       路易斯·古兹曼 Luis Guzmán
       布鲁斯·洛克 Bruce Locke
       小野美由纪 Miyuki Ono
       斯蒂芬·鲁特 Stephen Root
       艾伦·保尔 Alan Poul
       汉斯·季默 Hans Zimmer
       坂本龙一 Ryuichi Sakamoto
       迪安娜·克里滕登 Dianne Crittenden
       Richard C. Goddard Richard C. Goddard
       约翰·M·德维尔 John M. Dwyer
       莱斯利·布鲁姆 Leslie Bloom
       艾伦·米罗伊尼克 Ellen Mirojnick
       林戴尔·奎尤 Lyndell Quiyou
       苏珊·V·卡利诺夫斯基 Susan V. Kalinowski
       迈克尔·汉考克 Michael Hancock
       小弗雷德·C·布鲁 Fred C. Blau Jr.
       艾伦 A. 安彭 Allan A. Apone
       Neal Martz Neal Martz
       Aldric La'Auli Porter Aldric La'Auli Porter
       Dennis Maguire Dennis Maguire
       凯蒂·加瑞森 Katy Garretson
       朱迪·埃利希 Jodi Ehrlich

◎标  签 美国 / 高仓健 / 动作 / 迈克尔·道格拉斯 / 黑帮 / 日本 / 警匪 / RidleyScott

◎简  介
  纽约探员尼克(迈克尔•道格拉斯 Michael Douglas 饰)是个桀骜不驯的离异男子,他最近因渎职嫌疑被风纪部门调查。某日尼克与搭档文森(安迪•加西亚 Andy Garcia 饰)在一家餐厅中偶然遇到日本黑帮的内部火并,二人虽将主犯佐藤(松田优作 饰)捕获,但佐藤抢到的神秘块状物却不翼而飞。日本方面要求引渡佐藤,尼克和文森只得押解佐藤到达大阪,岂料在飞机场,尼克误将佐藤交给了乔装后的黑帮分子。不甘心失去人犯的尼克和文森以观察员的身份,在日方助理兼翻译松本正弘(高仓健 饰)协助下继续调查佐藤一案,他们发现佐藤正与大老板菅井为了制造假钞的铜板火并。不久,文森被佐藤一伙杀害,尼克的处境也愈发艰难,但他固执的要在晦暗的陌生城市中抓到凶手……
  1. ##### MediaInfo ######
  2. General
  3. Unique ID                                : 83023579893392984495067727127093799794 (0x3E75C2863AF20A8039F8CC9F89716B72)
  4. Complete name                            : Black.Rain.1989.BluRay.1080p.DTS.ES.6.1.x265.10bit-ALT.mkv
  5. Format                                   : Matroska
  6. Format version                           : Version 4
  7. File size                                : 11.6 GiB
  8. Duration                                 : 2 h 5 min
  9. Overall bit rate                         : 13.2 Mb/s
  10. Encoded date                             : UTC 2022-06-23 11:21:24
  11. Writing application                      : mkvmerge v49.0.0 ('Sick Of Losing Soulmates') 64-bit
  12. Writing library                          : libebml v1.4.0 + libmatroska v1.6.1
  13. Video
  14. ID                                       : 1
  15. Format                                   : HEVC
  16. Format/Info                              : High Efficiency Video Coding
  17. Format profile                           : Main 10@L5.1@High
  18. Codec ID                                 : V_MPEGH/ISO/HEVC
  19. Duration                                 : 2 h 5 min
  20. Bit rate                                 : 11.3 Mb/s
  21. Width                                    : 1 920 pixels
  22. Height                                   : 800 pixels
  23. Display aspect ratio                     : 2.40:1
  24. Frame rate mode                          : Constant
  25. Frame rate                               : 23.976 (24000/1001/53354) FPS
  26. Color space                              : YUV
  27. Chroma subsampling                       : 4:2:0
  28. Bit depth                                : 10 bits
  29. Bits/(Pixel*Frame)                       : 0.308
  30. Stream size                              : 9.93 GiB (86%)
  31. Title                                    : HEVC, x265Main10@L5.1@High, 24/1.001 fps @ 11345 kbps
  32. Writing library                          : x265 3.5+36-1f2c8da77:[Windows][GCC 11.2.0][64 bit] 10bit
  33. Encoding settings                        : cpuid=533541049071 / frame-threads=3 / numa-pools=8 / wpp / no-pmode / no-pme / no-psnr / no-ssim / log-level=2 / input-csp=1 / input-res=1920x800 / interlace=0 / total-frames=180255 / level-idc=51 / high-tier=1 / uhd-bd=0 / ref=5 / no-allow-non-conformance / no-repeat-headers / annexb / no-aud / no-eob / no-eos / no-hrd / info / hash=0 / no-temporal-layers / open-gop / min-keyint=24 / keyint=240 / gop-lookahead=0 / bframes=6 / b-adapt=2 / b-pyramid / bframe-bias=0 / rc-lookahead=40 / lookahead-slices=0 / NTMzNTQ=uuDQuD2mJt9fsCf / scenecut=40 / no-hist-scenecut / radl=0 / no-splice / no-intra-refresh / ctu=32 / min-cu-size=8 / no-rect / no-amp / max-tu-size=32 / tu-inter-depth=3 / tu-intra-depth=3 / limit-tu=4 / rdoq-level=2 / dynamic-rd=0.00 / no-ssim-rd / signhide / no-tskip / nr-intra=0 / nr-inter=0 / no-constrained-intra / no-strong-intra-smoothing / max-merge=4 / limit-refs=1 / limit-modes / me=3 / subme=4 / merange=25 / temporal-mvp / no-frame-dup / no-hme / weightp / weightb / no-analyze-src-pics / deblock=-3:-3 / no-sao / no-sao-non-deblock / rd=6 / selective-sao=0 / no-early-skip / rskip / no-fast-intra / no-tskip-fast / no-cu-lossless / b-intra / no-splitrd-skip / rdpenalty=0 / psy-rd=2.00 / psy-rdoq=1.00 / no-rd-refine / no-lossless / cbqpoffs=-2 / crqpoffs=-2 / rc=crf / crf=17.0 / qcomp=0.65 / qpstep=4 / stats-write=0 / stats-read=0 / vbv-maxrate=80000 / vbv-bufsize=80000 / vbv-init=0.9 / min-vbv-fullness=50.0 / max-vbv-fullness=80.0 / crf-max=0.0 / crf-min=0.0 / ipratio=1.40 / pbratio=1.30 / aq-mode=2 / aq-strength=0.85 / cutree / zone-count=0 / no-strict-cbr / qg-size=32 / no-rc-grain / qpmax=69 / qpmin=0 / no-const-vbv / sar=1 / overscan=0 / videoformat=5 / range=0 / colorprim=1 / transfer=1 / colormatrix=1 / chromaloc=0 / display-window=0 / cll=0,0 / min-luma=0 / max-luma=1023 / log2-max-poc-lsb=8 / vui-timing-info / vui-hrd-info / slices=1 / no-opt-qp-pps / no-opt-ref-list-length-pps / no-multi-pass-opt-rps / scenecut-bias=0.05 / hist-threshold=0.03 / no-opt-cu-delta-qp / no-aq-motion / no-hdr10 / no-hdr10-opt / no-dhdr10-opt / no-idr-recovery-sei / analysis-reuse-level=0 / analysis-save-reuse-level=0 / analysis-load-reuse-level=0 / scale-factor=0 / refine-intra=0 / refine-inter=0 / refine-mv=1 / refine-ctu-distortion=0 / no-limit-sao / ctu-info=0 / no-lowpass-dct / refine-analysis-type=0 / copy-pic=1 / max-ausize-factor=1.0 / no-dynamic-refine / no-single-sei / no-hevc-aq / no-svt / no-field / qp-adaptation-range=1.00 / scenecut-aware-qp=0conformance-window-offsets / right=0 / bottom=0 / NTMzNTQ= / decoder-max-rate=0 / no-vbv-live-multi-pass
  34. Language                                 : English
  35. Default                                  : Yes
  36. Forced                                   : No
  37. Color range                              : Limited
  38. Color primaries                          : BT.709
  39. Transfer characteristics                 : BT.709
  40. Matrix coefficients                      : BT.709
  41. Audio #1
  42. ID                                       : 2
  43. Format                                   : DTS ES XXCH
  44. Format/Info                              : Digital Theater Systems
  45. Commercial name                          : DTS-ES Discrete
  46. Codec ID                                 : A_DTS
  47. Duration                                 : 2 h 5 min
  48. Bit rate mode                            : Constant
  49. Bit rate                                 : 1 509 kb/s
  50. Channel(s)                               : 7 channels
  51. Channel layout                           : C L R Ls Rs Cb LFE
  52. Sampling rate                            : 48.0 kHz
  53. Frame rate                               : 93.750 FPS (512 SPF)
  54. Bit depth                                : 24 bits
  55. Compression mode                         : Lossy
  56. Stream size                              : 1.32 GiB (11%)
  57. Title                                    : English DTS-ES 6.1 @ 1509 kbps
  58. Language                                 : English
  59. Default                                  : Yes
  60. Forced                                   : No
  61. Audio #2
  62. ID                                       : 3
  63. Format                                   : AC-3
  64. Format/Info                              : Audio Coding 3
  65. Commercial name                          : Dolby Digital
  66. Codec ID                                 : A_AC3
  67. Duration                                 : 2 h 5 min
  68. Bit rate mode                            : Constant
  69. Bit rate                                 : 192 kb/s
  70. Channel(s)                               : 2 channels
  71. Channel layout                           : L R
  72. Sampling rate                            : 48.0 kHz
  73. Frame rate                               : 31.250 FPS (1536 SPF)
  74. Compression mode                         : Lossy
  75. Stream size                              : 172 MiB (1%)
  76. Title                                    : English Dolby Digital Audio 2.0 @ 192 kbps Commentary
  77. Language                                 : English
  78. Service kind                             : Complete Main
  79. Default                                  : No
  80. Forced                                   : No
  81. Text #1
  82. ID                                       : 4
  83. Format                                   : PGS
  84. Codec ID                                 : S_HDMV/PGS
  85. Codec ID/Info                            : Picture based subtitle format used on BDs/HD-DVDs
  86. Duration                                 : 1 h 58 min
  87. Bit rate                                 : 26.6 kb/s
  88. Count of elements                        : 2194
  89. Stream size                              : 22.5 MiB (0%)
  90. Title                                    : Eng/SUP
  91. Language                                 : English
  92. Default                                  : No
  93. Forced                                   : No
  94. Text #2
  95. ID                                       : 5
  96. Format                                   : PGS
  97. Codec ID                                 : S_HDMV/PGS
  98. Codec ID/Info                            : Picture based subtitle format used on BDs/HD-DVDs
  99. Duration                                 : 1 h 58 min
  100. Bit rate                                 : 30.4 kb/s
  101. Count of elements                        : 2536
  102. Stream size                              : 25.7 MiB (0%)
  103. Title                                    : Eng/SUP  SDH
  104. Language                                 : English
  105. Default                                  : No
  106. Forced                                   : No
  107. Text #3
  108. ID                                       : 6
  109. Format                                   : PGS
  110. Codec ID                                 : S_HDMV/PGS
  111. Codec ID/Info                            : Picture based subtitle format used on BDs/HD-DVDs
  112. Duration                                 : 2 h 2 min
  113. Bit rate                                 : 56.9 kb/s
  114. Count of elements                        : 3451
  115. Stream size                              : 49.7 MiB (0%)
  116. Title                                    : Eng/SUP  Commentary
  117. Language                                 : English
  118. Default                                  : No
  119. Forced                                   : No
  120. Text #4
  121. ID                                       : 7
  122. Format                                   : PGS
  123. Codec ID                                 : S_HDMV/PGS
  124. Codec ID/Info                            : Picture based subtitle format used on BDs/HD-DVDs
  125. Duration                                 : 1 h 58 min
  126. Bit rate                                 : 13.8 kb/s
  127. Count of elements                        : 2014
  128. Stream size                              : 11.7 MiB (0%)
  129. Title                                    : Chs/SUP  简体
  130. Language                                 : Chinese
  131. Default                                  : Yes
  132. Forced                                   : No
  133. Text #5
  134. ID                                       : 8
  135. Format                                   : PGS
  136. Codec ID                                 : S_HDMV/PGS
  137. Codec ID/Info                            : Picture based subtitle format used on BDs/HD-DVDs
  138. Duration                                 : 1 h 58 min
  139. Bit rate                                 : 14.1 kb/s
  140. Count of elements                        : 2014
  141. Stream size                              : 11.9 MiB (0%)
  142. Title                                    : Cht/SUP  繁体
  143. Language                                 : Chinese
  144. Default                                  : No
  145. Forced                                   : No
  146. Text #6
  147. ID                                       : 9
  148. Format                                   : PGS
  149. Codec ID                                 : S_HDMV/PGS
  150. Codec ID/Info                            : Picture based subtitle format used on BDs/HD-DVDs
  151. Duration                                 : 1 h 58 min
  152. Bit rate                                 : 29.4 kb/s
  153. Count of elements                        : 2348
  154. Stream size                              : 24.8 MiB (0%)
  155. Title                                    : Chs/SUP  简英双语
  156. Language                                 : Chinese
  157. Default                                  : No
  158. Forced                                   : No
  159. Text #7
  160. ID                                       : 10
  161. Format                                   : PGS
  162. Codec ID                                 : S_HDMV/PGS
  163. Codec ID/Info                            : Picture based subtitle format used on BDs/HD-DVDs
  164. Duration                                 : 1 h 58 min
  165. Bit rate                                 : 29.6 kb/s
  166. Count of elements                        : 2348
  167. Stream size                              : 25.0 MiB (0%)
  168. Title                                    : Cht/SUP  繁英双语
  169. Language                                 : Chinese
  170. Default                                  : No
  171. Forced                                   : No
  172. Menu
  173. 00:00:00.000                             : en:第 01 章
  174. 00:02:45.832                             : en:第 02 章
  175. 00:05:06.306                             : en:第 03 章
  176. 00:11:11.296                             : en:第 04 章
  177. 00:14:44.175                             : en:第 05 章
  178. 00:18:08.087                             : en:第 06 章
  179. 00:20:48.581                             : en:第 07 章
  180. 00:23:09.847                             : en:第 08 章
  181. 00:31:24.299                             : en:第 09 章
  182. 00:46:03.010                             : en:第 10 章
  183. 00:49:09.029                             : en:第 11 章
  184. 00:53:48.642                             : en:第 12 章
  185. 00:55:31.119                             : en:第 13 章
  186. 00:57:25.817                             : en:第 14 章
  187. 01:02:02.093                             : en:第 15 章
  188. 01:07:33.424                             : en:第 16 章
  189. 01:12:05.363                             : en:第 17 章
  190. 01:15:14.427                             : en:第 18 章
  191. 01:19:33.811                             : en:第 19 章
  192. 01:23:30.923                             : en:第 20 章
  193. 01:26:43.698                             : en:第 21 章
  194. 01:32:43.349                             : en:第 22 章
  195. 01:36:35.373                             : en:第 23 章
  196. 01:40:33.027                             : en:第 24 章
  197. 01:47:11.258                             : en:第 25 章
  198. 01:51:30.309                             : en:第 26 章
  199. 01:57:21.451                             : en:第 27 章
  200. 02:01:32.785                             : en:第 28 章





此处一般会放置磁力链或种子下载链接,不过此链接需要注册会员才能看到,点击“立即注册”
磁力链下载【下载链接仅对注册会员开放,登陆后可见】
BT9527电影天堂 1、BT9527电影天堂提供的BT文件均来源于互联网抓取,只供网友学习交流、技术提升使用。
2、我们遵守BitTorrent点对点协议原则,任何版权问题请联系原资源发布商,我们不处理任何版权纠纷,谢谢!如有争议请联系邮箱:BT9527#hotmail.com(#换成@)
3、如果您发现某页面或地址有错误,请联系站长邮箱BT9527#hotmail.com(#换成@),我们会尽快处理。您的热心是对BT9527电影天堂最大的支持。
4、本站建议去正规影院观看电影以支持电影行业发展。
最新回复 (0)

你可以在 登录 or 注册 后,对此帖发表评论!

返回
发新帖