9发子弹[简繁英字幕].9.Bullets.2022.1080p.BluRay.DTS-HD.MA.5.1.x265-10bit-ENTHD 7.50GB

版主小s 3月前 184

✔资源类型:暂未分类   ✔电影年份:2022   ✔电影地区:欧美   ✔电影分类:剧情

◎标  题 9发子弹
◎译  名 Gypsy Moon / 玫瑰舞后之月
◎片  名 9 Bullets
◎年  代 2022
◎产  地 美国
◎类  别 剧情 / 惊悚
◎语  言 英语
◎上映日期 2022-04-15(美国)
◎IMDb评分 3.8/10 (880人评价)
◎IMDb链接 https://www.imdb.com/title/tt13680520/
◎豆瓣评分 5.0/10 (133人评价)
◎豆瓣链接 https://movie.douban.com/subject/35458988/
◎演  员 琳娜·海蒂 Lena Headey
       萨姆·沃辛顿 Sam Worthington
       芭芭拉·赫希 Barbara Hershey
       凯姆·吉甘戴 Cam Gigandet
       艾玛·霍泽尔 Emma Holzer
       科妮莉亚·格斯特 Cornelia Guest
       克里斯‧穆利纳克斯 Chris Mullinax
       玛琳娜·福特 Marlene Forte
       马克·门查卡 Marc Menchaca
       约旦·迪恩·斯科特 Jordan Dean Scott
       安东尼·菲茨杰拉德 Anthony Fitzgerald

◎简  介
  琳娜·海蒂、萨姆·沃辛顿、迪恩·斯科特·瓦兹奎兹(Dean Scott Vasquez)、芭芭拉·赫希([黑天鹅])将出演独立制片新片[玫瑰舞后之月](Gypsy Moon,暂译)。该片由吉吉·加斯顿(Gigi Gaston)自编自导,拉拉·安东尼(La La Anthony)、凯姆·吉甘戴([暮光之城])、马丁·山米尔(Martin Sensmeier)、艾玛·霍泽尔一同出演。海蒂饰演的女主角,是一个被前男友(沃辛顿饰)威胁性命的滑稽舞表演者。在最后一场舞蹈表演的前夜,她必须跑去救一个邻居家的男孩(瓦兹奎兹饰)。而对这个男孩的感情,给了她在生命中第二次感受到爱的机会。
  1. ##### MediaInfo ######
  2. General
  3. Unique ID                                : 46500703832257918766865793169798214337 (0x22FBB5B518B206D6502DF6968EC032C1)
  4. Complete name                            : 9.Bullets.2022.1080p.BluRay.DTS-HD.MA.5.1.x265-10bit-ENTHD.mkv
  5. Format                                   : Matroska
  6. Format version                           : Version 4
  7. File size                                : 7.50 GiB
  8. Duration                                 : 1 h 36 min
  9. Overall bit rate mode                    : Variable
  10. Overall bit rate                         : 11.1 Mb/s
  11. Movie name                               : 9 Bullets 2022 1080p BluRay DTS x265-10bit-HDS
  12. Encoded date                             : UTC 2022-06-23 07:25:51
  13. Writing application                      : mkvmerge v67.0.0 ('Under Stars') 64-bit
  14. Writing library                          : libebml v1.4.2 + libmatroska v1.6.4
  15. Video
  16. ID                                       : 1
  17. Format                                   : HEVC
  18. Format/Info                              : High Efficiency Video Coding
  19. Format profile                           : Main 10@L5.1@High
  20. Codec ID                                 : V_MPEGH/ISO/HEVC
  21. Duration                                 : 1 h 36 min
  22. Bit rate                                 : 7 848 kb/s
  23. Width                                    : 1 920 pixels
  24. Height                                   : 804 pixels
  25. Display aspect ratio                     : 2.40:1
  26. Frame rate mode                          : Constant
  27. Frame rate                               : 23.976 (24000/1001/53354) FPS
  28. Color space                              : YUV
  29. Chroma subsampling                       : 4:2:0
  30. Bit depth                                : 10 bits
  31. Bits/(Pixel*Frame)                       : 0.212
  32. Stream size                              : 5.29 GiB (71%)
  33. Title                                    : hpmlo@HDSky
  34. Writing library                          : x265 - H.265/HEVC codec
  35. Default                                  : Yes
  36. Forced                                   : No
  37. Audio
  38. ID                                       : 2
  39. Format                                   : DTS XLL
  40. Format/Info                              : Digital Theater Systems
  41. Commercial name                          : DTS-HD Master Audio
  42. Codec ID                                 : A_DTS
  43. Duration                                 : 1 h 36 min
  44. Bit rate mode                            : Variable
  45. Bit rate                                 : 3 208 kb/s
  46. Channel(s)                               : 6 channels
  47. Channel layout                           : C L R Ls Rs LFE
  48. Sampling rate                            : 48.0 kHz
  49. Frame rate                               : 93.750 FPS (512 SPF)
  50. Bit depth                                : 24 bits
  51. Compression mode                         : Lossless
  52. Stream size                              : 2.16 GiB (29%)
  53. Title                                    : English
  54. Language                                 : English
  55. Default                                  : Yes
  56. Forced                                   : No
  57. Text #1
  58. ID                                       : 3
  59. Format                                   : PGS
  60. Muxing mode                              : zlib
  61. Codec ID                                 : S_HDMV/PGS
  62. Codec ID/Info                            : Picture based subtitle format used on BDs/HD-DVDs
  63. Duration                                 : 1 h 28 min
  64. Bit rate                                 : 30.2 kb/s
  65. Count of elements                        : 1627
  66. Stream size                              : 19.0 MiB (0%)
  67. Title                                    : CHS
  68. Language                                 : Chinese
  69. Default                                  : Yes
  70. Forced                                   : No
  71. Text #2
  72. ID                                       : 4
  73. Format                                   : PGS
  74. Muxing mode                              : zlib
  75. Codec ID                                 : S_HDMV/PGS
  76. Codec ID/Info                            : Picture based subtitle format used on BDs/HD-DVDs
  77. Duration                                 : 1 h 28 min
  78. Bit rate                                 : 31.0 kb/s
  79. Count of elements                        : 1627
  80. Stream size                              : 19.6 MiB (0%)
  81. Title                                    : CHT
  82. Language                                 : Chinese
  83. Default                                  : Yes
  84. Forced                                   : No
  85. Text #3
  86. ID                                       : 5
  87. Format                                   : PGS
  88. Muxing mode                              : zlib
  89. Codec ID                                 : S_HDMV/PGS
  90. Codec ID/Info                            : Picture based subtitle format used on BDs/HD-DVDs
  91. Duration                                 : 1 h 36 min
  92. Bit rate                                 : 55.5 kb/s
  93. Count of elements                        : 2258
  94. Stream size                              : 38.2 MiB (0%)
  95. Title                                    : ENG
  96. Language                                 : English
  97. Default                                  : Yes
  98. Forced                                   : No
  99. Menu
  100. 00:00:00.000                             : en:第 01 章
  101. 00:07:35.455                             : en:第 02 章
  102. 00:15:06.823                             : en:第 03 章
  103. 00:22:03.030                             : en:第 04 章
  104. 00:30:31.580                             : en:第 05 章
  105. 00:38:02.864                             : en:第 06 章
  106. 00:46:13.854                             : en:第 07 章
  107. 00:55:43.257                             : en:第 08 章
  108. 01:05:08.613                             : en:第 09 章
  109. 01:11:17.148                             : en:第 10 章
  110. 01:21:04.318                             : en:第 11 章
  111. 01:30:13.533                             : en:第 12 章





此处一般会放置磁力链或种子下载链接,不过此链接需要注册会员才能看到,点击“立即注册”
磁力链下载【下载链接仅对注册会员开放,登陆后可见】
BT9527电影天堂 1、BT9527电影天堂提供的BT文件均来源于互联网抓取,只供网友学习交流、技术提升使用。
2、我们遵守BitTorrent点对点协议原则,任何版权问题请联系原资源发布商,我们不处理任何版权纠纷,谢谢!如有争议请联系邮箱:BT9527#hotmail.com(#换成@)
3、如果您发现某页面或地址有错误,请联系站长邮箱BT9527#hotmail.com(#换成@),我们会尽快处理。您的热心是对BT9527电影天堂最大的支持。
4、本站建议去正规影院观看电影以支持电影行业发展。
最新回复 (0)

你可以在 登录 or 注册 后,对此帖发表评论!

返回
发新帖