朱诺[简繁英字幕].Juno.2007.BluRay.1080p.x265.10bit-MiniHD 5.83GB

版主小s 4天前 37

✔资源类型:暂未分类   ✔电影年份:2007   ✔电影地区:欧美   ✔电影分类:剧情

◎标  题 朱诺
◎译  名 Juno少女孕记(港) / 鸿孕当头(台)
◎片  名 Juno
◎年  代 2007
◎产  地 美国 / 加拿大
◎类  别 剧情 / 喜剧 / 爱情
◎语  言 英语
◎上映日期 2007-12-25(美国/加拿大)
◎IMDb评分 7.5/10 (514796人评价)
◎IMDb链接 https://www.imdb.com/title/tt0467406/
◎豆瓣评分 7.9/10 (229802人评价)
◎豆瓣链接 https://movie.douban.com/subject/2132495/
◎片  长 96 分钟
◎导  演 贾森·雷特曼 Jason Reitman
◎编  剧 迪亚波罗·科蒂 Diablo Cody
◎演  员 艾利奥特·佩吉 Elliot Page
       迈克尔·塞拉 Michael Cera
       詹妮弗·加纳 Jennifer Garner
       杰森·贝特曼 Jason Bateman
       艾莉森·珍妮 Allison Janney
       J·K·西蒙斯 J.K. Simmons
       奥莉薇·瑟尔比 Olivia Thirlby
       艾琳·佩德 Eileen Pedde
       雷恩·威尔森 Rainn Wilson
       丹尼尔·克拉克 Daniel Clark
       达拉·费伊 Darla Fay
       阿曼·乔哈尔 Aman Johal
       田· 薇拉莉 Valerie Tian
       艾米莉·帕金斯 Emily Perkins
       卡伦·德·齐尔瓦 Kaaren de Zilva
       史蒂文·克里斯托弗·帕克 Steven Christopher Parker
       坎迪丝·阿科拉 Candice Accola
       茜尔拉·皮特金 Sierra Pitkin
       伊芙·哈洛 Eve Harlow
       克尔斯滕·奥尔特 Kirsten Alter
       艾米丽·坦南特 Emily Tennant
       阿什利·惠兰斯 Ashley Whillans
       杰夫·维特兹克 Jeff Witzke
       卡梅隆·布莱特 Cameron Bright
       罗宾·罗斯 Robyn Ross
       布兰登·巴顿 Brandon Barton
       温迪·拉塞尔 Wendy Russell
       约瑟夫·德雷克 Joseph Drake
       利安妮·哈尔丰 Lianne Halfon
       Jim Miller Jim Miller
       科利·科诺普 Kelli Konop
       约翰·马尔科维奇 John Malkovich
       梅森·诺维克 Mason Novick
       内森·卡亨 Nathan Kahane
       丹尼尔·杜别奇 Daniel Dubiecki
       罗素·史密斯 Russell Smith
       布拉德·范·阿拉贡 Brad Van Arragon
       金·戈顿 Kim Gordon
       埃里克·斯蒂尔伯格 Eric Steelberg
       达娜·E·格劳伯曼 Dana E. Glauberman
       明迪·马丁 Mindy Marin
       莫妮克·普鲁德姆 Monique Prudhomme
       罗伯特·A·潘蒂尼 Robert A. Pandini
       维多利亚·道恩 Victoria Down
       Monica Huppert Monica Huppert
       Toby Lindala Toby Lindala
       Lance Webb Lance Webb
       Chad Belair Chad Belair
       John McKeown John McKeown
       Josy Capkun Josy Capkun
       Gary Hawes Gary Hawes
       Ken Locsmandi Ken Locsmandi
       帕特里克·克兰斯 Patrick Clancey
       丹尼塔·斯劳格赫特尔 Danita Slaughter

◎简  介
  高中生朱诺(艾莲·佩奇 Ellen Page饰)大大咧咧,是个可爱的精灵鬼,正经历着青春期到成人的蜕变。这一天她突然做出决定:要和帅气的田径队员布里克(迈克尔·塞拉 Michael Cera饰)共尝禁果。朱诺这次可闯了大祸,她一不留心竟然珠胎暗结,接下来的麻烦可想而知。                                    
                                和布里克谈婚论嫁显然还为时过早,但朱诺并不想堕胎,她和好友商量,决定把孩子生下来,然后交给一对善心的夫妇抚养。然而,父母终究得知了朱诺的秘密,反应并没有朱诺料想的那么糟糕——一家人因为腹中的孩子团结起来,共商计策,为她分担怀孕的点滴苦乐。但是,朱诺毕竟是一个超级年轻的妈妈,小小年龄如何应对这一切,恐怕还要经历一次心灵的蜕变。
  1. ##### MediaInfo ######
  2. General
  3. Unique ID                                : 25688242167912528503342746874488103254 (0x1353601F859866A32F8CE2B9DD392156)
  4. Complete name                            : Juno.2007.BluRay.1080p.x265.10bit-MiniHD.mkv
  5. Format                                   : Matroska
  6. Format version                           : Version 4
  7. File size                                : 5.83 GiB
  8. Duration                                 : 1 h 36 min
  9. Overall bit rate                         : 8 687 kb/s
  10. Encoded date                             : UTC 2018-03-16 08:16:05
  11. Writing application                      : mkvmerge v21.0.0 ('Tardigrades Will Inherit The Earth') 64-bit
  12. Writing library                          : libebml v1.3.5 + libmatroska v1.4.8
  13. Video
  14. ID                                       : 1
  15. Format                                   : HEVC
  16. Format/Info                              : High Efficiency Video Coding
  17. Format profile                           : Main 10@L4@High
  18. Codec ID                                 : V_MPEGH/ISO/HEVC
  19. Duration                                 : 1 h 36 min
  20. Bit rate                                 : 7 851 kb/s
  21. Width                                    : 1 920 pixels
  22. Height                                   : 1 038 pixels
  23. Display aspect ratio                     : 1.85:1
  24. Frame rate mode                          : Constant
  25. Frame rate                               : 23.976 (24000/1001/53354) FPS
  26. Color space                              : YUV
  27. Chroma subsampling                       : 4:2:0
  28. Bit depth                                : 10 bits
  29. Bits/(Pixel*Frame)                       : 0.164
  30. Stream size                              : 5.27 GiB (90%)
  31. Title                                    : 视频
  32. Default                                  : Yes
  33. Forced                                   : No
  34. Color range                              : Limited
  35. Color primaries                          : BT.709
  36. Transfer characteristics                 : BT.709
  37. Matrix coefficients                      : BT.709
  38. Audio
  39. ID                                       : 2
  40. Format                                   : AC-3
  41. Format/Info                              : Audio Coding 3
  42. Commercial name                          : Dolby Digital
  43. Codec ID                                 : A_AC3
  44. Duration                                 : 1 h 36 min
  45. Bit rate mode                            : Constant
  46. Bit rate                                 : 640 kb/s
  47. Channel(s)                               : 6 channels
  48. Channel layout                           : L R C LFE Ls Rs
  49. Sampling rate                            : 48.0 kHz
  50. Frame rate                               : 31.250 FPS (1536 SPF)
  51. Compression mode                         : Lossy
  52. Stream size                              : 440 MiB (7%)
  53. Title                                    : 英语AC3-5.1@640Kbps
  54. Language                                 : English
  55. Service kind                             : Complete Main
  56. Default                                  : Yes
  57. Forced                                   : No
  58. Text #1
  59. ID                                       : 3
  60. Format                                   : PGS
  61. Muxing mode                              : zlib
  62. Codec ID                                 : S_HDMV/PGS
  63. Codec ID/Info                            : Picture based subtitle format used on BDs/HD-DVDs
  64. Duration                                 : 1 h 35 min
  65. Bit rate                                 : 112 kb/s
  66. Count of elements                        : 4306
  67. Stream size                              : 76.6 MiB (1%)
  68. Title                                    : 简中
  69. Language                                 : Chinese
  70. Default                                  : Yes
  71. Forced                                   : No
  72. Text #2
  73. ID                                       : 4
  74. Format                                   : PGS
  75. Muxing mode                              : zlib
  76. Codec ID                                 : S_HDMV/PGS
  77. Codec ID/Info                            : Picture based subtitle format used on BDs/HD-DVDs
  78. Duration                                 : 1 h 35 min
  79. Bit rate                                 : 172 kb/s
  80. Count of elements                        : 4308
  81. Stream size                              : 118 MiB (2%)
  82. Title                                    : 简英
  83. Default                                  : No
  84. Forced                                   : No
  85. Text #3
  86. ID                                       : 5
  87. Format                                   : PGS
  88. Muxing mode                              : zlib
  89. Codec ID                                 : S_HDMV/PGS
  90. Codec ID/Info                            : Picture based subtitle format used on BDs/HD-DVDs
  91. Duration                                 : 1 h 31 min
  92. Bit rate                                 : 37.6 kb/s
  93. Count of elements                        : 3063
  94. Stream size                              : 24.6 MiB (0%)
  95. Title                                    : 繁中
  96. Language                                 : Chinese
  97. Default                                  : No
  98. Forced                                   : No
  99. Text #4
  100. ID                                       : 6
  101. Format                                   : PGS
  102. Muxing mode                              : zlib
  103. Codec ID                                 : S_HDMV/PGS
  104. Codec ID/Info                            : Picture based subtitle format used on BDs/HD-DVDs
  105. Duration                                 : 1 h 31 min
  106. Bit rate                                 : 40.9 kb/s
  107. Count of elements                        : 2266
  108. Stream size                              : 26.7 MiB (0%)
  109. Title                                    : 英语
  110. Language                                 : English
  111. Default                                  : No
  112. Forced                                   : No
  113. Menu
  114. 00:00:00.000                             : en:Chapter 01
  115. 00:04:09.749                             : en:Chapter 02
  116. 00:06:57.000                             : en:Chapter 03
  117. 00:09:07.464                             : en:Chapter 04
  118. 00:11:45.872                             : en:Chapter 05
  119. 00:14:06.095                             : en:Chapter 06
  120. 00:16:35.828                             : en:Chapter 07
  121. 00:19:25.539                             : en:Chapter 08
  122. 00:22:50.494                             : en:Chapter 09
  123. 00:27:00.994                             : en:Chapter 10
  124. 00:32:30.907                             : en:Chapter 11
  125. 00:37:33.626                             : en:Chapter 12
  126. 00:41:28.778                             : en:Chapter 13
  127. 00:47:16.042                             : en:Chapter 14
  128. 00:49:52.823                             : en:Chapter 15
  129. 00:51:52.359                             : en:Chapter 16
  130. 00:54:52.414                             : en:Chapter 17
  131. 00:56:27.634                             : en:Chapter 18
  132. 00:59:45.499                             : en:Chapter 19
  133. 01:05:42.605                             : en:Chapter 20
  134. 01:10:34.480                             : en:Chapter 21
  135. 01:13:30.156                             : en:Chapter 22
  136. 01:17:06.038                             : en:Chapter 23
  137. 01:20:40.085                             : en:Chapter 24
  138. 01:23:42.935                             : en:Chapter 25
  139. 01:26:17.547                             : en:Chapter 26
  140. 01:29:23.900                             : en:Chapter 27
  141. 01:32:19.534                             : en:Chapter 28
  142. 01:36:04.509                             : en:Chapter 29





此处一般会放置磁力链或种子下载链接,不过此链接需要注册会员才能看到,点击“立即注册”
磁力链下载【下载链接仅对注册会员开放,登陆后可见】
BT9527电影天堂 1、BT9527电影天堂提供的BT文件均来源于互联网抓取,只供网友学习交流、技术提升使用。
2、我们遵守BitTorrent点对点协议原则,任何版权问题请联系原资源发布商,我们不处理任何版权纠纷,谢谢!如有争议请联系邮箱:BT9527#hotmail.com(#换成@)
3、如果您发现某页面或地址有错误,请联系站长邮箱BT9527#hotmail.com(#换成@),我们会尽快处理。您的热心是对BT9527电影天堂最大的支持。
4、本站建议去正规影院观看电影以支持电影行业发展。
最新回复 (0)

你可以在 登录 or 注册 后,对此帖发表评论!

返回
发新帖