末代皇帝[国英多音轨/简繁特效字幕].The.Last.Emperor.1987.BluRay.1080p.x265.10bit.2Audios-MiniHD 11.72GB

版主小s 7天前 59

✔资源类型:暂未分类   ✔电影年份:更 早   ✔电影地区:欧美   ✔电影分类:剧情

◎标  题 末代皇帝
◎译  名 末代皇帝溥仪(港)
◎片  名 The Last Emperor
◎年  代 1987
◎产  地 英国 / 意大利 / 中国大陆 / 法国
◎类  别 剧情 / 传记 / 历史
◎语  言 英语 / 汉语普通话 / 日语
◎上映日期 1987-10-04(东京国际电影节) / 1987-10-23(意大利)
◎IMDb评分 7.7/10 (99430人评价)
◎IMDb链接 https://www.imdb.com/title/tt0093389/
◎豆瓣评分 9.3/10 (724673人评价)
◎豆瓣链接 https://movie.douban.com/subject/1293172/
◎片  长 163分钟
◎导  演 贝纳尔多·贝托鲁奇 Bernardo Bertolucci
◎编  剧 贝纳尔多·贝托鲁奇 Bernardo Bertolucci
       马克·派普罗 Mark Peploe
       恩佐·温加里 Enzo Ungari
◎演  员 尊龙 John Lone
       陈冲 Joan Chen
       邬君梅 Vivian Wu
       彼得·奥图尔 Peter O'Toole
       英若诚 Ruocheng Ying
       吴涛 Tao Wu
       黄自强 Victor Wong
       丹尼斯·邓 Dennis Dun
       坂本龙一 Ryuichi Sakamoto
       马吉·汉 Maggie Han
       里克·扬 Ric Young
       田川洋行 Cary-Hiroyuki Tagawa
       苟杰德 Jade go
       理查德·吴 Richard Vuu
       皱缇格 Tsou Tijger
       陈凯歌 Kaige Chen
       卢燕 Lisa Lu
       区亨利 Henry O
       陈述 Shu Chen
       鲍皓昕 Basil Pao
       黄文捷 Wenjie Huang
       邵茹贞 Ruzhen Shao
       亨利·基 Henry Kyi
       张良斌 Liangbin Zhang
       梁冬 Dong Liang
       康斯坦丁·格雷戈里 Constantine Gregory
       黄汉琪 Lucia Hwong
       王涛 Tao Wang
       宋怀桂 Huaikuei Soong
       蔡鸿翔 Hongxiang Cai
       程淑艳 Shuyan Cheng
       张天民 Tianmin Zhang
       王彪 Biao Wang
       劳力 Li Lao
       户田惠子 Keiko Toda
       约翰·戴利 John Daly
       杰瑞米·托马斯 Jeremy Thomas
       乔伊斯·赫利希 Joyce Herlihy
       佛朗哥·吉韦尔 Franco Giovale
       坂本龙一 Ryuichi Sakamoto
       大卫·伯恩 David Byrne
       上野耕路 Koji Ueno
       苏聪 Cong Su
       维托里奥·斯托拉罗 Vittorio Storaro
       加布里埃·克里斯蒂亚尼 Gabriella Cristiani
       王继贤 Jixian Wang
       吉亚尼·西尔韦斯特里 Gianni Silvestri
       玛丽亚-特雷莎·巴巴索 Maria-Teresa Barbasso
       詹姆斯·艾奇逊 James Acheson
       孙焕香 Huanxiang Sun
       法布里齐奥·斯福尔扎 Fabrizio Sforza
       宁瀛 Ying Ning
       裴兰 Nicoletta Peyran
       佛朗哥·安热利 Franco Angeli
       孙小铃 Shirley Sun

◎标  签 历史 / 传记 / 溥仪 / 经典 / 人生 / 剧情 / 史诗 / 意大利

◎简  介
  溥仪(尊龙 饰)的一生在电影中娓娓道来。他从三岁起登基,年幼的眼光中只有大臣身上的一只蝈蝈,江山在他心中只是一个不明所以的名词。长大了,他以为可以变革,却被太监一把火烧了朝廷账本。他以为自己是大清江山的主人,却做了日本人的傀儡。                                    
                                解放后,他坐上了从苏联回来的火车,身边是押送监视他的解放军。他猜测自己难逃一死,便躲在狭小的卫生间里,割脉自杀。然而他没有死在火车上,命运的嘲笑还在等着他。文革的风风雨雨,在他身上留下了斑斑伤痕。
  1. ##### MediaInfo ######
  2. General
  3. Unique ID                                : 192570226928249754400411478625670998947 (0x90DFAD3888212D418B41601B9C492BA3)
  4. Complete name                            : The.Last.Emperor.1987.BluRay.1080p.x265.10bit.2Audios-MiniHD.mkv
  5. Format                                   : Matroska
  6. Format version                           : Version 4
  7. File size                                : 11.7 GiB
  8. Duration                                 : 3 h 38 min
  9. Overall bit rate                         : 7 674 kb/s
  10. Encoded date                             : UTC 2018-04-03 13:37:14
  11. Writing application                      : mkvmerge v21.0.0 ('Tardigrades Will Inherit The Earth') 64-bit
  12. Writing library                          : libebml v1.3.5 + libmatroska v1.4.8
  13. Video
  14. ID                                       : 1
  15. Format                                   : HEVC
  16. Format/Info                              : High Efficiency Video Coding
  17. Format profile                           : Main 10@L4@High
  18. Codec ID                                 : V_MPEGH/ISO/HEVC
  19. Duration                                 : 3 h 38 min
  20. Bit rate                                 : 6 562 kb/s
  21. Width                                    : 1 920 pixels
  22. Height                                   : 820 pixels
  23. Display aspect ratio                     : 2.35:1
  24. Frame rate mode                          : Constant
  25. Frame rate                               : 23.976 (24000/1001/53354) FPS
  26. Color space                              : YUV
  27. Chroma subsampling                       : 4:2:0
  28. Bit depth                                : 10 bits
  29. Bits/(Pixel*Frame)                       : 0.174
  30. Stream size                              : 10.0 GiB (86%)
  31. Title                                    : 视频
  32. Default                                  : Yes
  33. Forced                                   : No
  34. Color range                              : Limited
  35. Color primaries                          : BT.709
  36. Transfer characteristics                 : BT.709
  37. Matrix coefficients                      : BT.709
  38. Audio #1
  39. ID                                       : 2
  40. Format                                   : AC-3
  41. Format/Info                              : Audio Coding 3
  42. Commercial name                          : Dolby Digital
  43. Codec ID                                 : A_AC3
  44. Duration                                 : 3 h 38 min
  45. Bit rate mode                            : Constant
  46. Bit rate                                 : 640 kb/s
  47. Channel(s)                               : 6 channels
  48. Channel layout                           : L R C LFE Ls Rs
  49. Sampling rate                            : 48.0 kHz
  50. Frame rate                               : 31.250 FPS (1536 SPF)
  51. Compression mode                         : Lossy
  52. Stream size                              : 1 001 MiB (8%)
  53. Title                                    : 英语
  54. Language                                 : English
  55. Service kind                             : Complete Main
  56. Default                                  : Yes
  57. Forced                                   : No
  58. Audio #2
  59. ID                                       : 3
  60. Format                                   : AC-3
  61. Format/Info                              : Audio Coding 3
  62. Commercial name                          : Dolby Digital
  63. Codec ID                                 : A_AC3
  64. Duration                                 : 3 h 38 min
  65. Bit rate mode                            : Constant
  66. Bit rate                                 : 448 kb/s
  67. Channel(s)                               : 6 channels
  68. Channel layout                           : L R C LFE Ls Rs
  69. Sampling rate                            : 48.0 kHz
  70. Frame rate                               : 31.250 FPS (1536 SPF)
  71. Compression mode                         : Lossy
  72. Stream size                              : 700 MiB (6%)
  73. Title                                    : 国语
  74. Language                                 : Chinese
  75. Service kind                             : Complete Main
  76. Default                                  : No
  77. Forced                                   : No
  78. Text #1
  79. ID                                       : 4
  80. Format                                   : PGS
  81. Muxing mode                              : zlib
  82. Codec ID                                 : S_HDMV/PGS
  83. Codec ID/Info                            : Picture based subtitle format used on BDs/HD-DVDs
  84. Duration                                 : 3 h 34 min
  85. Bit rate                                 : 20.2 kb/s
  86. Count of elements                        : 3475
  87. Stream size                              : 31.0 MiB (0%)
  88. Title                                    : 国配简中特效
  89. Language                                 : Chinese
  90. Default                                  : Yes
  91. Forced                                   : No
  92. Text #2
  93. ID                                       : 5
  94. Format                                   : PGS
  95. Muxing mode                              : zlib
  96. Codec ID                                 : S_HDMV/PGS
  97. Codec ID/Info                            : Picture based subtitle format used on BDs/HD-DVDs
  98. Duration                                 : 3 h 32 min
  99. Bit rate                                 : 11.8 kb/s
  100. Count of elements                        : 2374
  101. Stream size                              : 17.9 MiB (0%)
  102. Title                                    : 简体中文
  103. Language                                 : Chinese
  104. Default                                  : No
  105. Forced                                   : No
  106. Text #3
  107. ID                                       : 6
  108. Format                                   : PGS
  109. Muxing mode                              : zlib
  110. Codec ID                                 : S_HDMV/PGS
  111. Codec ID/Info                            : Picture based subtitle format used on BDs/HD-DVDs
  112. Duration                                 : 3 h 32 min
  113. Bit rate                                 : 12.3 kb/s
  114. Count of elements                        : 2374
  115. Stream size                              : 18.6 MiB (0%)
  116. Title                                    : 繁体中文
  117. Language                                 : Chinese
  118. Default                                  : No
  119. Forced                                   : No
  120. Menu
  121. 00:00:00.000                             : en:Chapter 01
  122. 00:09:58.346                             : en:Chapter 02
  123. 00:20:07.623                             : en:Chapter 03
  124. 00:28:58.111                             : en:Chapter 04
  125. 00:40:21.753                             : en:Chapter 05
  126. 00:51:57.990                             : en:Chapter 06
  127. 01:01:13.420                             : en:Chapter 07
  128. 01:06:10.508                             : en:Chapter 08
  129. 01:13:23.858                             : en:Chapter 09
  130. 01:26:49.413                             : en:Chapter 10
  131. 01:41:10.815                             : en:Chapter 11
  132. 01:49:21.764                             : en:Chapter 12
  133. 01:57:35.048                             : en:Chapter 13
  134. 02:05:32.149                             : en:Chapter 14
  135. 02:12:52.087                             : en:Chapter 15
  136. 02:22:19.197                             : en:Chapter 16
  137. 02:30:05.663                             : en:Chapter 17
  138. 02:36:53.068                             : en:Chapter 18
  139. 02:46:19.761                             : en:Chapter 19
  140. 02:55:52.290                             : en:Chapter 20
  141. 03:07:08.843                             : en:Chapter 21
  142. 03:18:44.828                             : en:Chapter 22
  143. 03:22:46.444                             : en:Chapter 23
  144. 03:34:10.171                             : en:Chapter 24





此处一般会放置磁力链或种子下载链接,不过此链接需要注册会员才能看到,点击“立即注册”
磁力链下载【下载链接仅对注册会员开放,登陆后可见】
BT9527电影天堂 1、BT9527电影天堂提供的BT文件均来源于互联网抓取,只供网友学习交流、技术提升使用。
2、我们遵守BitTorrent点对点协议原则,任何版权问题请联系原资源发布商,我们不处理任何版权纠纷,谢谢!如有争议请联系邮箱:BT9527#hotmail.com(#换成@)
3、如果您发现某页面或地址有错误,请联系站长邮箱BT9527#hotmail.com(#换成@),我们会尽快处理。您的热心是对BT9527电影天堂最大的支持。
4、本站建议去正规影院观看电影以支持电影行业发展。
最新回复 (0)

你可以在 登录 or 注册 后,对此帖发表评论!

返回
发新帖