月球[简繁英字幕].Moon.2009.BluRay.1080p.x265.10bit-MiniHD 3.90GB

版主小s 3月前 167

✔资源类型:暂未分类   ✔电影年份:2009   ✔电影地区:欧美   ✔电影分类:剧情

◎标  题 月球
◎译  名 月劫余生(港) / 2009月球(台) / 寂寞月影
◎片  名 Moon
◎年  代 2009
◎产  地 英国
◎类  别 剧情 / 科幻 / 悬疑
◎语  言 英语 / 西班牙语
◎上映日期 2009-07-17
◎IMDb评分 7.8/10 (348628人评价)
◎IMDb链接 https://www.imdb.com/title/tt1182345/
◎豆瓣评分 8.5/10 (244051人评价)
◎豆瓣链接 https://movie.douban.com/subject/3073124/
◎片  长 97 分钟
◎导  演 邓肯·琼斯 Duncan Jones
◎编  剧 邓肯·琼斯 Duncan Jones
       内森·帕克 Nathan Parker
◎演  员 山姆·洛克威尔 Sam Rockwell
       凯文·史派西 Kevin Spacey
       多米妮克·麦克艾丽戈特 Dominique McElligott
       卡雅·斯考达里奥 Kaya Scodelario
       本尼迪克特·王 Benedict Wong
       马特·贝里 Matt Berry
       马尔科姆·斯图尔特 Malcolm Stewart
       罗宾·查克 Robin Chalk
       玛丽·泰勒·摩尔 Mary Tyler Moore
       Stuart Fenegan Stuart Fenegan
       Trevor Beattie Trevor Beattie
       楚蒂·斯泰勒 Trudie Styler
       克林特·曼塞尔 Clint Mansell
       杰里米·齐默尔曼 Jeremy Zimmerman
       托尼·诺布尔 Tony Noble
       简·佩特里 Jane Petrie
       Mick Ward Mick Ward
       Sevendalino Khay Sevendalino Khay
       Alex Smith Alex Smith
       Angie Wills Angie Wills
       霍尔格·佛斯 Holger Voss

◎标  签 科幻 / 人性 / 英国 / 孤独 / 悬疑 / 反思 / 2009 / 人生

◎简  介
  未来世界,随着科技的飞速进步,地球的污染也越来越严重。为了遏制这种现状,一家名为月能工业有限公司的企业应运而生。该公司致力于月球能源的开发,通过采集氦-3来满足地球对能源的需求。月能公司在月球设有基地,山姆·贝尔(山姆·洛克威尔 Sam Rockwell 饰)正是该基地 上唯一的工作人员。山姆是公司聘用的合同工,他已在月球孤零零地生活3年,陪伴他的只有智能机器人戈蒂(凯文·斯派西 Kevin Spacey 饰)。枯燥乏味的生活令山姆归心似箭,在还有两周就离开月球的时候,山姆偶然遭遇一起事故。醒来后的他发现戈蒂似乎对其有所隐瞒,公司高层也拒绝他的回程请求。山姆借机逃出基地,却在事故发生地点发现另一个自己……                                    
                                本片荣获2009年爱丁堡国际电影节最佳英国影片奖、2009年西雅图国际电影节最佳男主角奖。
  1. ##### MediaInfo ######
  2. General
  3. Unique ID                                : 43336112702898555685795051511667684369 (0x209A3B518772ABCE015AFDB2B08AF411)
  4. Complete name                            : Moon.2009.BluRay.1080p.x265.10bit-MiniHD.mkv
  5. Format                                   : Matroska
  6. Format version                           : Version 4
  7. File size                                : 3.90 GiB
  8. Duration                                 : 1 h 37 min
  9. Overall bit rate                         : 5 741 kb/s
  10. Encoded date                             : UTC 2018-02-06 12:15:50
  11. Writing application                      : mkvmerge v20.0.0 ('I Am The Sun') 64-bit
  12. Writing library                          : libebml v1.3.5 + libmatroska v1.4.8
  13. Video
  14. ID                                       : 1
  15. Format                                   : HEVC
  16. Format/Info                              : High Efficiency Video Coding
  17. Format profile                           : Main 10@L4@High
  18. Codec ID                                 : V_MPEGH/ISO/HEVC
  19. Duration                                 : 1 h 37 min
  20. Bit rate                                 : 5 055 kb/s
  21. Width                                    : 1 920 pixels
  22. Height                                   : 804 pixels
  23. Display aspect ratio                     : 2.40:1
  24. Frame rate mode                          : Constant
  25. Frame rate                               : 23.976 (24000/1001/53354) FPS
  26. Color space                              : YUV
  27. Chroma subsampling                       : 4:2:0
  28. Bit depth                                : 10 bits
  29. Bits/(Pixel*Frame)                       : 0.137
  30. Stream size                              : 3.43 GiB (88%)
  31. Title                                    : 视频
  32. Default                                  : Yes
  33. Forced                                   : No
  34. Color range                              : Limited
  35. Color primaries                          : BT.709
  36. Audio
  37. ID                                       : 2
  38. Format                                   : AC-3
  39. Format/Info                              : Audio Coding 3
  40. Commercial name                          : Dolby Digital
  41. Codec ID                                 : A_AC3
  42. Duration                                 : 1 h 37 min
  43. Bit rate mode                            : Constant
  44. Bit rate                                 : 640 kb/s
  45. Channel(s)                               : 6 channels
  46. Channel layout                           : L R C LFE Ls Rs
  47. Sampling rate                            : 48.0 kHz
  48. Frame rate                               : 31.250 FPS (1536 SPF)
  49. Compression mode                         : Lossy
  50. Stream size                              : 445 MiB (11%)
  51. Title                                    : 英语
  52. Language                                 : English
  53. Service kind                             : Complete Main
  54. Default                                  : Yes
  55. Forced                                   : No
  56. Text #1
  57. ID                                       : 3
  58. Format                                   : PGS
  59. Muxing mode                              : zlib
  60. Codec ID                                 : S_HDMV/PGS
  61. Codec ID/Info                            : Picture based subtitle format used on BDs/HD-DVDs
  62. Duration                                 : 1 h 32 min
  63. Bit rate                                 : 17.3 kb/s
  64. Count of elements                        : 1641
  65. Stream size                              : 11.4 MiB (0%)
  66. Title                                    : 简中
  67. Language                                 : Chinese
  68. Default                                  : Yes
  69. Forced                                   : No
  70. Text #2
  71. ID                                       : 4
  72. Format                                   : PGS
  73. Muxing mode                              : zlib
  74. Codec ID                                 : S_HDMV/PGS
  75. Codec ID/Info                            : Picture based subtitle format used on BDs/HD-DVDs
  76. Duration                                 : 1 h 32 min
  77. Bit rate                                 : 20.7 kb/s
  78. Count of elements                        : 1796
  79. Stream size                              : 13.7 MiB (0%)
  80. Title                                    : 繁中
  81. Language                                 : Chinese
  82. Default                                  : No
  83. Forced                                   : No
  84. Text #3
  85. ID                                       : 5
  86. Format                                   : PGS
  87. Muxing mode                              : zlib
  88. Codec ID                                 : S_HDMV/PGS
  89. Codec ID/Info                            : Picture based subtitle format used on BDs/HD-DVDs
  90. Duration                                 : 1 h 32 min
  91. Bit rate                                 : 41.8 kb/s
  92. Count of elements                        : 1641
  93. Stream size                              : 27.7 MiB (1%)
  94. Title                                    : 简英双语
  95. Default                                  : No
  96. Forced                                   : No
  97. Text #4
  98. ID                                       : 6
  99. Format                                   : PGS
  100. Muxing mode                              : zlib
  101. Codec ID                                 : S_HDMV/PGS
  102. Codec ID/Info                            : Picture based subtitle format used on BDs/HD-DVDs
  103. Duration                                 : 1 h 32 min
  104. Bit rate                                 : 28.7 kb/s
  105. Count of elements                        : 1798
  106. Stream size                              : 19.0 MiB (0%)
  107. Title                                    : 英语
  108. Language                                 : English
  109. Default                                  : No
  110. Forced                                   : No





此处一般会放置磁力链或种子下载链接,不过此链接需要注册会员才能看到,点击“立即注册”
磁力链下载【下载链接仅对注册会员开放,登陆后可见】
BT9527电影天堂 1、BT9527电影天堂提供的BT文件均来源于互联网抓取,只供网友学习交流、技术提升使用。
2、我们遵守BitTorrent点对点协议原则,任何版权问题请联系原资源发布商,我们不处理任何版权纠纷,谢谢!如有争议请联系邮箱:BT9527#hotmail.com(#换成@)
3、如果您发现某页面或地址有错误,请联系站长邮箱BT9527#hotmail.com(#换成@),我们会尽快处理。您的热心是对BT9527电影天堂最大的支持。
4、本站建议去正规影院观看电影以支持电影行业发展。
最新回复 (0)

你可以在 登录 or 注册 后,对此帖发表评论!

返回
发新帖