曼哈顿[简繁英字幕].Manhattan.1979.BluRay.1080p.x265.10bit-MiniHD 7.34GB

版主小s 3月前 161

✔资源类型:暂未分类   ✔电影年份:更 早   ✔电影地区:欧美   ✔电影分类:剧情

◎标  题 曼哈顿
◎译  名 曼克顿
◎片  名 Manhattan
◎年  代 1979
◎产  地 美国
◎类  别 剧情 / 喜剧 / 爱情
◎语  言 英语
◎上映日期 1979-04-25
◎IMDb评分 7.9/10 (137105人评价)
◎IMDb链接 https://www.imdb.com/title/tt0079522/
◎豆瓣评分 8.4/10 (33349人评价)
◎豆瓣链接 https://movie.douban.com/subject/1294300/
◎片  长 96 分钟
◎导  演 伍迪·艾伦 Woody Allen
◎编  剧 马歇尔·布瑞克曼 Marshall Brickman
       伍迪·艾伦 Woody Allen
◎演  员 黛安·基顿 Diane Keaton
       梅丽尔·斯特里普 Meryl Streep
       伍迪·艾伦 Woody Allen
       迈克尔·墨菲 Michael Murphy
       玛瑞儿·海明威 Mariel Hemingway
       华莱士·肖恩 Wallace Shawn
       安·伯恩·霍夫曼 Anne Byrne Hoffman

◎标  签 伍迪·艾伦 / 美国 / 爱情 / WoodyAllen / 1979 / woodyallen / 美国电影 / 伍迪艾伦

◎简  介
    40岁的艾萨克·戴维斯(伍迪·艾伦 Woody Allen 饰)在写作上不算成功,在感情上更是一团糟。一方面,为了另一个女人而离开他的前妻吉尔(梅丽尔·斯特里普 Meryl Streep 饰)打算出版一本有关他们私密婚姻生活的书,另一方面,17岁的女孩翠西(玛瑞儿·海明 威 Mariel Hemingway 饰)对于这段他并不打算认真经营的感情投入了越来越多的热情。在这个节骨眼上,好友耶尔(迈克尔·莫菲Michael Murphy饰)的情人玛丽(黛安·基顿 Diane Keaton 饰)闯入了戴维斯的视线,风趣的谈吐,投机的话题,一切的一切都为两人的感情擦出了火花。3个男人,3个女人,在曼哈顿这个繁华又孤单的城市,这群成年人究竟该用何种方式来道德并公正的解决他们的感情问题呢?                                    
                                  本片荣获1980年英国电影学院最佳影片奖。
  1. ##### MediaInfo ######
  2. General
  3. Unique ID                                : 221968337607936032406644977883038936494 (0xA6FD8BFBC5D5C6E8835DFADBF31CEDAE)
  4. Complete name                            : Manhattan.1979.BluRay.1080p.x265.10bit-MiniHD.mkv
  5. Format                                   : Matroska
  6. Format version                           : Version 4
  7. File size                                : 7.34 GiB
  8. Duration                                 : 1 h 36 min
  9. Overall bit rate                         : 10.9 Mb/s
  10. Movie name                               : Woody Allen - Manhattan (1979)
  11. Encoded date                             : UTC 2018-01-16 10:03:09
  12. Writing application                      : mkvmerge v17.0.0 ('Be Ur Friend') 64-bit
  13. Writing library                          : libebml v1.3.5 + libmatroska v1.4.8
  14. Video
  15. ID                                       : 1
  16. Format                                   : HEVC
  17. Format/Info                              : High Efficiency Video Coding
  18. Format profile                           : Main 10@L4@Main
  19. Codec ID                                 : V_MPEGH/ISO/HEVC
  20. Duration                                 : 1 h 36 min
  21. Bit rate                                 : 10.5 Mb/s
  22. Width                                    : 1 916 pixels
  23. Height                                   : 820 pixels
  24. Display aspect ratio                     : 2.35:1
  25. Frame rate mode                          : Constant
  26. Frame rate                               : 23.976 (24000/1001/53354) FPS
  27. Color space                              : YUV
  28. Chroma subsampling                       : 4:2:0
  29. Bit depth                                : 10 bits
  30. Bits/(Pixel*Frame)                       : 0.279
  31. Stream size                              : 7.06 GiB (96%)
  32. Writing library                          : x265 2.5+14-2718cb5dd67f:[Windows][GCC 7.1.0][64 bit] 10bit
  33. Encoding settings                        : cpuid=533541173503 / frame-threads=5 / numa-pools=36 / wpp / no-pmode / no-pme / no-psnr / no-ssim / log-level=2 / csvfn=D:\bdrip\Manhattan1979.log / csv-log-level=0 / input-csp=1 / input-res=1916x820 / interlace=0 / total-frames=138566 / level-idc=0 / high-tier=1 / uhd-bd=0 / ref=5 / no-allow-non-conformance / no-repeat-headers / annexb / no-aud / no-hrd / info / hash=0 / no-temporal-layers / no-open-gop / min-keyint=1 / keyint=360 / bframes=9 / b-adapt=2 / b-pyramid / bframe-bias=0 / rc-lookahead=60 / lookahead-slices=4 / NTMzNTQ=uuDQuD2mJt9fsCf / scenecut=40 / no-intra-refresh / ctu=32 / min-cu-size=8 / no-rect / no-amp / max-tu-size=16 / tu-inter-depth=2 / tu-intra-depth=2 / limit-tu=4 / rdoq-level=1 / dynamic-rd=0.00 / ssim-rd / signhide / no-tskip / nr-intra=0 / nr-inter=0 / no-constrained-intra / no-strong-intra-smoothing / max-merge=3 / limit-refs=2 / limit-modes / me=3 / subme=5 / merange=25 / temporal-mvp / weightp / weightb / no-analyze-src-pics / deblock=0:0 / no-sao / no-sao-non-deblock / rd=4 / no-early-skip / no-rskip / no-fast-intra / no-tskip-fast / no-cu-lossless / b-intra / no-splitrd-skip / rdpenalty=1 / psy-rd=0.00 / psy-rdoq=2.00 / no-rd-refine / analysis-reuse-mode=0 / no-lossless / cbqpoffs=-1 / crqpoffs=-1 / rc=crf / crf=21.0 / qcomp=0.65 / qpstep=4 / stats-write=0 / stats-read=0 / ipratio=1.40 / pbratio=1.30 / aq-mode=1 / aq-strength=0.70 / cutree / zone-count=0 / no-strict-cbr / qg-size=16 / no-rc-grain / qpmax=69 / qpmin=0 / no-const-vbv / sar=0 / overscan=0 / videoformat=5 / range=0 / colorprim=1 / transfer=2 / colormatrix=2 / chromaloc=0 / display-window=0 / max-cll=0,0 / min-luma=0 / max-luma=1023 / log2-max-poc-lsb=8 / vui-timing-info / vui-hrd-info / slices=1 / opt-qp-pps / opt-ref-list-length-pps / no-multi-pass-opt-rps / scenecut-bias=0.05 / no-opt-cu-delta-qp / no-aq-motion / no-hdr / no-hdr-opt / no-dhdr10-opt / analysis-reuse-level=5 / scale-factor=0 / refine-intra=0 / refine-inter=0 / refine-mv=0 / no-limit-sao / ctu-info=0
  34. Default                                  : Yes
  35. Forced                                   : No
  36. Color range                              : Limited
  37. Color primaries                          : BT.709
  38. Audio
  39. ID                                       : 2
  40. Format                                   : AC-3
  41. Format/Info                              : Audio Coding 3
  42. Commercial name                          : Dolby Digital
  43. Codec ID                                 : A_AC3
  44. Duration                                 : 1 h 36 min
  45. Bit rate mode                            : Constant
  46. Bit rate                                 : 320 kb/s
  47. Channel(s)                               : 2 channels
  48. Channel layout                           : L R
  49. Sampling rate                            : 48.0 kHz
  50. Frame rate                               : 31.250 FPS (1536 SPF)
  51. Compression mode                         : Lossy
  52. Stream size                              : 220 MiB (3%)
  53. Title                                    : 英语
  54. Language                                 : English
  55. Service kind                             : Complete Main
  56. Default                                  : Yes
  57. Forced                                   : No
  58. Text #1
  59. ID                                       : 3
  60. Format                                   : PGS
  61. Muxing mode                              : zlib
  62. Codec ID                                 : S_HDMV/PGS
  63. Codec ID/Info                            : Picture based subtitle format used on BDs/HD-DVDs
  64. Duration                                 : 1 h 34 min
  65. Bit rate                                 : 61.5 kb/s
  66. Count of elements                        : 2902
  67. Stream size                              : 41.4 MiB (1%)
  68. Title                                    : 英文
  69. Language                                 : English
  70. Default                                  : Yes
  71. Forced                                   : No
  72. Text #2
  73. ID                                       : 4
  74. Format                                   : PGS
  75. Muxing mode                              : zlib
  76. Codec ID                                 : S_HDMV/PGS
  77. Codec ID/Info                            : Picture based subtitle format used on BDs/HD-DVDs
  78. Duration                                 : 1 h 32 min
  79. Bit rate                                 : 37.7 kb/s
  80. Count of elements                        : 2862
  81. Stream size                              : 25.0 MiB (0%)
  82. Title                                    : 中文简体画面外
  83. Language                                 : Chinese
  84. Default                                  : No
  85. Forced                                   : No
  86. Text #3
  87. ID                                       : 5
  88. Format                                   : PGS
  89. Muxing mode                              : zlib
  90. Codec ID                                 : S_HDMV/PGS
  91. Codec ID/Info                            : Picture based subtitle format used on BDs/HD-DVDs
  92. Duration                                 : 1 h 32 min
  93. Bit rate                                 : 39.3 kb/s
  94. Count of elements                        : 2862
  95. Stream size                              : 26.1 MiB (0%)
  96. Title                                    : 中文繁体画面外
  97. Language                                 : Chinese
  98. Default                                  : No
  99. Forced                                   : No
  100. Text #4
  101. ID                                       : 6
  102. Format                                   : PGS
  103. Muxing mode                              : zlib
  104. Codec ID                                 : S_HDMV/PGS
  105. Codec ID/Info                            : Picture based subtitle format used on BDs/HD-DVDs
  106. Duration                                 : 1 h 32 min
  107. Bit rate                                 : 37.7 kb/s
  108. Count of elements                        : 2862
  109. Stream size                              : 25.0 MiB (0%)
  110. Title                                    : 中文简体画面内
  111. Language                                 : Chinese
  112. Default                                  : No
  113. Forced                                   : No
  114. Text #5
  115. ID                                       : 7
  116. Format                                   : PGS
  117. Muxing mode                              : zlib
  118. Codec ID                                 : S_HDMV/PGS
  119. Codec ID/Info                            : Picture based subtitle format used on BDs/HD-DVDs
  120. Duration                                 : 1 h 32 min
  121. Bit rate                                 : 39.3 kb/s
  122. Count of elements                        : 2862
  123. Stream size                              : 26.1 MiB (0%)
  124. Title                                    : 中文繁体画面内
  125. Language                                 : Chinese
  126. Default                                  : No
  127. Forced                                   : No
  128. Menu
  129. 00:00:00.000                             : en:New York!
  130. 00:04:08.874                             : en:Smoking at Elaine's
  131. 00:06:47.532                             : en:Serious Talks
  132. 00:11:02.537                             : en:Overrated Intellectuals
  133. 00:18:40.828                             : en:"I Quit!"
  134. 00:21:38.047                             : en:Black-Tie Event
  135. 00:24:04.318                             : en:Getting Acquainted
  136. 00:28:33.086                             : en:The Morning After
  137. 00:32:12.639                             : en:Picking Up Willy
  138. 00:35:10.775                             : en:Enlightening Date
  139. 00:41:14.514                             : en:"It's Your Night!"
  140. 00:44:34.630                             : en:"I Can't Do This!"
  141. 00:50:40.579                             : en:"He Led Me On!"
  142. 00:53:53.981                             : en:First Kiss
  143. 00:59:13.133                             : en:"So Long" Over Sodas
  144. 01:03:16.918                             : en:Falling in Love
  145. 01:05:58.997                             : en:Confronting the Exes
  146. 01:11:55.770                             : en:Revealing Literature
  147. 01:14:49.735                             : en:Stunned & Confused
  148. 01:18:24.491                             : en:"We're Just People!"
  149. 01:21:26.340                             : en:Broken Hearts
  150. 01:24:08.377                             : en:Dictating Life
  151. 01:27:09.474                             : en:"I Made a Mistake!"
  152. 01:33:56.130                             : en:End Credits





此处一般会放置磁力链或种子下载链接,不过此链接需要注册会员才能看到,点击“立即注册”
磁力链下载【下载链接仅对注册会员开放,登陆后可见】
BT9527电影天堂 1、BT9527电影天堂提供的BT文件均来源于互联网抓取,只供网友学习交流、技术提升使用。
2、我们遵守BitTorrent点对点协议原则,任何版权问题请联系原资源发布商,我们不处理任何版权纠纷,谢谢!如有争议请联系邮箱:BT9527#hotmail.com(#换成@)
3、如果您发现某页面或地址有错误,请联系站长邮箱BT9527#hotmail.com(#换成@),我们会尽快处理。您的热心是对BT9527电影天堂最大的支持。
4、本站建议去正规影院观看电影以支持电影行业发展。
最新回复 (0)

你可以在 登录 or 注册 后,对此帖发表评论!

返回
发新帖