星际传奇3[中文字幕].Riddick.2013.BluRay.1080p.x265.10bit-MiniHD 6.41GB

版主小s 10天前 28

✔资源类型:暂未分类   ✔电影年份:2013   ✔电影地区:欧美   ✔电影分类:动作

◎标  题 星际传奇3
◎译  名 星兽浩劫(港) / 超世纪战警:暗黑对决(台) / Riddick: Rule the Dark / RIddck / The Chronicles of Riddick: Dead Man Stalking
◎片  名 Riddick
◎年  代 2013
◎产  地 美国 / 英国
◎类  别 动作 / 科幻 / 惊悚
◎语  言 英语
◎上映日期 2013-09-06(美国)
◎IMDb评分 6.4/10 (164072人评价)
◎IMDb链接 https://www.imdb.com/title/tt1411250/
◎豆瓣评分 6.5/10 (25555人评价)
◎豆瓣链接 https://movie.douban.com/subject/3652297/
◎片  长 119分钟
◎导  演 大卫·杜西 David Twohy
◎编  剧 大卫·杜西 David Twohy
       Oliver Butcher Oliver Butcher
       Stephen Cornwell Stephen Cornwell
       肯·维特 Ken Wheat
       吉姆·维特 Jim Wheat
◎演  员 范·迪塞尔 Vin Diesel
       詹迪·莫拉 Jordi Mollà
       马特·纳夫莱 Matt Nable
       凯缇·萨克霍夫 Katee Sackhoff
       戴夫·巴蒂斯塔 Dave Bautista
       博基姆·伍德拜因 Bokeem Woodbine
       劳尔·特鲁希洛 Raoul Trujillo
       诺兰·杰拉德·冯克 Nolan Gerard Funk
       卡尔·厄本 Karl Urban
       凯莉·希尔森 Keri Hilson
       安托瓦内特·尼普莱拉 Antoinette Nikprelaj
       诺亚·丹比 Noah Danby

◎简  介
  孔武有力的瑞迪克(范·迪塞尔 Vin Diesel 饰)终于坐上组织的宝座,强兵悍将拜倒阶下,与此同时又有更多野心家蠢蠢欲动,时刻准备取代他的位置。直到某天,瑞迪克被亲信哄骗离开舰队,启程返回阔别已久的家乡,谁知竟被带到一颗充满凶险的蛮荒星球,进而更遭到随从的背叛和追杀 。侥幸逃得一命的瑞迪克满身伤痕,而这颗行星上到处都是凶猛的野兽和可怕的异形。为了求生,他只有将自己化身为杀气十足的杀神,以驯服这群时时刻刻想要吃掉他的异界生物。当然,更大的挑战和危险远远不止这些,迪瑞克依然活着的消息传遍全宇宙,由此引来一波又一波的赏金猎人试图割下他的脑袋。                                    
                                生死之战,在陌生的星球展开……
  1. ##### MediaInfo ######
  2. General
  3. Unique ID                                : 151739333251692388851590264722957026021 (0x7227EEBC95C2E930CA2989D0273842E5)
  4. Complete name                            : Riddick.2013.BluRay.1080p.x265.10bit-MiniHD.mkv
  5. Format                                   : Matroska
  6. Format version                           : Version 4
  7. File size                                : 6.41 GiB
  8. Duration                                 : 2 h 6 min
  9. Overall bit rate                         : 7 236 kb/s
  10. Encoded date                             : UTC 2018-02-08 15:40:53
  11. Writing application                      : mkvmerge v20.0.0 ('I Am The Sun') 64-bit
  12. Writing library                          : libebml v1.3.5 + libmatroska v1.4.8
  13. Video
  14. ID                                       : 1
  15. Format                                   : HEVC
  16. Format/Info                              : High Efficiency Video Coding
  17. Format profile                           : Main 10@L4@Main
  18. Codec ID                                 : V_MPEGH/ISO/HEVC
  19. Duration                                 : 2 h 6 min
  20. Bit rate                                 : 6 582 kb/s
  21. Width                                    : 1 920 pixels
  22. Height                                   : 800 pixels
  23. Display aspect ratio                     : 2.40:1
  24. Frame rate mode                          : Constant
  25. Frame rate                               : 23.976 (24000/1001/53354) FPS
  26. Color space                              : YUV
  27. Chroma subsampling                       : 4:2:0
  28. Bit depth                                : 10 bits
  29. Bits/(Pixel*Frame)                       : 0.179
  30. Stream size                              : 5.83 GiB (91%)
  31. Writing library                          : x265 2.6+2-32e6f04b8713:[Windows][GCC 7.2.0][64 bit] 10bit
  32. Encoding settings                        : cpuid=533541173503 / frame-threads=3 / numa-pools=8 / wpp / no-pmode / no-pme / no-psnr / no-ssim / log-level=2 / input-csp=1 / input-res=1920x800 / interlace=0 / total-frames=182476 / level-idc=0 / high-tier=1 / uhd-bd=0 / ref=5 / no-allow-non-conformance / no-repeat-headers / annexb / no-aud / no-hrd / info / hash=0 / no-temporal-layers / no-open-gop / min-keyint=1 / keyint=360 / bframes=8 / b-adapt=2 / b-pyramid / bframe-bias=0 / rc-lookahead=60 / lookahead-slices=4 / NTMzNTQ=uuDQuD2mJt9fsCf / scenecut=40 / no-intra-refresh / ctu=32 / min-cu-size=8 / rect / no-amp / max-tu-size=16 / tu-inter-depth=2 / tu-intra-depth=2 / limit-tu=4 / rdoq-level=1 / dynamic-rd=0.00 / ssim-rd / signhide / no-tskip / nr-intra=0 / nr-inter=0 / no-constrained-intra / no-strong-intra-smoothing / max-merge=3 / limit-refs=2 / limit-modes / me=3 / subme=5 / merange=25 / temporal-mvp / weightp / weightb / no-analyze-src-pics / deblock=-1:-1 / no-sao / no-sao-non-deblock / rd=4 / no-early-skip / rskip / no-fast-intra / no-tskip-fast / no-cu-lossless / b-intra / no-splitrd-skip / rdpenalty=1 / psy-rd=0.00 / psy-rdoq=5.00 / no-rd-refine / analysis-reuse-mode=0 / no-lossless / cbqpoffs=-2 / crqpoffs=-2 / rc=crf / crf=19.0 / qcomp=0.70 / qpstep=4 / stats-write=0 / stats-read=0 / ipratio=1.40 / pbratio=1.30 / aq-mode=2 / aq-strength=0.80 / cutree / zone-count=0 / no-strict-cbr / qg-size=16 / no-rc-grain / qpmax=69 / qpmin=0 / no-const-vbv / sar=1 / overscan=0 / videoformat=5 / range=0 / colorprim=1 / transfer=2 / colormatrix=2 / chromaloc=0 / display-window=0 / max-cll=0,0 / min-luma=0 / max-luma=1023 / log2-max-poc-lsb=8 / vui-timing-info / vui-hrd-info / slices=1 / no-opt-qp-pps / no-opt-ref-list-length-pps / no-multi-pass-opt-rps / scenecut-bias=0.05 / no-opt-cu-delta-qp / no-aq-motion / no-hdr / no-hdr-opt / no-dhdr10-opt / analysis-reuse-level=5 / scale-factor=0 / refine-intra=0 / refine-inter=0 / refine-mv=0 / no-limit-sao / ctu-info=0 / no-lowpass-dct / refine-mv-type=0 / copy-pic=1
  33. Default                                  : Yes
  34. Forced                                   : No
  35. Color range                              : Limited
  36. Color primaries                          : BT.709
  37. Audio
  38. ID                                       : 2
  39. Format                                   : AC-3
  40. Format/Info                              : Audio Coding 3
  41. Commercial name                          : Dolby Digital
  42. Codec ID                                 : A_AC3
  43. Duration                                 : 2 h 6 min
  44. Bit rate mode                            : Constant
  45. Bit rate                                 : 640 kb/s
  46. Channel(s)                               : 6 channels
  47. Channel layout                           : L R C LFE Ls Rs
  48. Sampling rate                            : 48.0 kHz
  49. Frame rate                               : 31.250 FPS (1536 SPF)
  50. Compression mode                         : Lossy
  51. Stream size                              : 581 MiB (9%)
  52. Language                                 : English
  53. Service kind                             : Complete Main
  54. Default                                  : Yes
  55. Forced                                   : No
  56. Text
  57. ID                                       : 3
  58. Format                                   : PGS
  59. Muxing mode                              : zlib
  60. Codec ID                                 : S_HDMV/PGS
  61. Codec ID/Info                            : Picture based subtitle format used on BDs/HD-DVDs
  62. Duration                                 : 2 h 1 min
  63. Bit rate                                 : 25.7 kb/s
  64. Count of elements                        : 1889
  65. Stream size                              : 22.3 MiB (0%)
  66. Language                                 : Chinese
  67. Default                                  : Yes
  68. Forced                                   : No
  69. Menu
  70. 00:00:00.000                             : en:00:00:00.000
  71. 00:05:35.418                             : en:00:05:35.418
  72. 00:12:10.521                             : en:00:12:10.521
  73. 00:23:27.364                             : en:00:23:27.364
  74. 00:27:56.425                             : en:00:27:56.425
  75. 00:32:11.221                             : en:00:32:11.221
  76. 00:38:03.698                             : en:00:38:03.698
  77. 00:44:20.283                             : en:00:44:20.283
  78. 00:48:40.876                             : en:00:48:40.876
  79. 00:56:19.668                             : en:00:56:19.668
  80. 01:01:16.673                             : en:01:01:16.673
  81. 01:07:35.093                             : en:01:07:35.093
  82. 01:15:23.436                             : en:01:15:23.436
  83. 01:19:58.836                             : en:01:19:58.836
  84. 01:26:51.832                             : en:01:26:51.832
  85. 01:31:27.107                             : en:01:31:27.107
  86. 01:39:32.717                             : en:01:39:32.717
  87. 01:45:32.701                             : en:01:45:32.701
  88. 01:53:45.652                             : en:01:53:45.652
  89. 02:02:56.160                             : en:02:02:56.160





此处一般会放置磁力链或种子下载链接,不过此链接需要注册会员才能看到,点击“立即注册”
磁力链下载【下载链接仅对注册会员开放,登陆后可见】
BT9527电影天堂 1、BT9527电影天堂提供的BT文件均来源于互联网抓取,只供网友学习交流、技术提升使用。
2、我们遵守BitTorrent点对点协议原则,任何版权问题请联系原资源发布商,我们不处理任何版权纠纷,谢谢!如有争议请联系邮箱:BT9527#hotmail.com(#换成@)
3、如果您发现某页面或地址有错误,请联系站长邮箱BT9527#hotmail.com(#换成@),我们会尽快处理。您的热心是对BT9527电影天堂最大的支持。
4、本站建议去正规影院观看电影以支持电影行业发展。
最新回复 (0)

你可以在 登录 or 注册 后,对此帖发表评论!

返回
发新帖