星际传奇2[中文字幕].The.Chronicles.of.Riddick.2004.BluRay.1080p.x265.10bit-MiniHD 5.96GB

版主小s 7天前 28

✔资源类型:暂未分类   ✔电影年份:更 早   ✔电影地区:欧美   ✔电影分类:动作

◎标  题 星际传奇2
◎译  名 超世纪战警(台) / 天域战士(港) / 漆黑一片2
◎片  名 The Chronicles of Riddick
◎年  代 2004
◎产  地 美国
◎类  别 动作 / 科幻 / 惊悚 / 冒险
◎语  言 英语
◎上映日期 2004-06-11(美国)
◎IMDb评分 6.7/10 (221857人评价)
◎IMDb链接 https://www.imdb.com/title/tt0296572/
◎豆瓣评分 6.9/10 (23371人评价)
◎豆瓣链接 https://movie.douban.com/subject/1308859/
◎片  长 119分钟
◎导  演 大卫·杜西 David Twohy
◎编  剧 大卫·杜西 David Twohy
       吉姆·维特 Jim Wheat
       肯·维特 Ken Wheat
◎演  员 范·迪塞尔 Vin Diesel
       科鲁姆·费奥瑞 Colm Feore
       坦迪·牛顿 Thandiwe Newton
       朱迪·丹奇 Judi Dench
       卡尔·厄本 Karl Urban
       艾莉克莎·黛瓦洛斯 Alexa Davalos
       莱纳斯·罗彻 Linus Roache
       约里克·范·韦杰宁根 Yorick van Wageningen
       尼克·齐兰德 Nick Chinlund
       凯斯·大卫 Keith David
       罗杰·R.克劳斯 Roger R. Cross
       特瑞·陈 Terry Chen
       克里斯蒂娜·考克斯 Christina Cox
       金·霍桑 Kim Hawthorne
       斯蒂法诺·迪马特奥 Stefano DiMatteo
       John Prowse John Prowse
       仲根香澄 Kasumi Nakane
       泰·奥尔森 Ty Olsson
       柯林·科里根 Colin Corrigan
       阿丽克西斯·卢埃林 Alexis Llewellyn
       阿伦·道格拉斯 Aaron Douglas
       阿德里安·多瓦尔 Adrien Dorval
       Raoul Ganeev Raoul Ganeev
       奥·盖尔 Lorena Gale
       彼得·威廉姆斯 Peter Williams
       约翰曼 John Mann
       Douglas Arthurs Douglas Arthurs
       维塔利·克拉夫琴科 Vitaly Kravchenko
       本·科顿 Ben Cotton
       克里斯汀·莱曼 Kristin Lehman
       达西·劳瑞 Darcy Laurie
       George Zakk George Zakk
       范·迪塞尔 Vin Diesel
       戴维·沃马克 David Womark
       特德·菲尔德 Ted Field
       格里莫·瑞维尔 Graeme Revell
       丹尼斯·弗尔克勒 Dennis Virkler
       玛丽·塞尔维 Mary Selway
       科琳·梅尔斯 Coreen Mayrs
       Kevin Ishioka Kevin Ishioka
       彼得·兰多 Peter Lando
       马克·W·曼斯布里奇 Mark W. Mansbridge
       艾伦·米罗伊尼克 Ellen Mirojnick
       Jessica Rain Jessica Rain
       Monica Huppert Monica Huppert
       维多利亚·道恩 Victoria Down
       Toby Lindala Toby Lindala
       维·尼尔 Ve Neill
       乔尔·哈罗 Joel Harlow
       Michael Burnett Michael Burnett
       格伦·赫特雷克 Glenn Hetrick
       特里·巴利尔 Terry Baliel
       James Dean Patten James Dean Patten
       克里斯蒂安·汀斯利 Christien Tinsley
       罗伯特·A·潘蒂尼 Robert A. Pandini
       基督.斯坦利 Christ Stanley
       Gordon Piper Gordon Piper
       David Daniels David Daniels
       David Ticotin David Ticotin
       肖恩·奥斯马克 Sean Osmack
       菲利普·卡契卡斯 Philip Katsikas
       Kimberly K. Nelson Kimberly K. Nelson
       Tor-Bjorn Olsson Tor-Bjorn Olsson
       内森·布伦斯基尔 Nathan Brunskill
        R.J. Harbour
       杰森·亚诺夫斯基 Jason Yanofsky
       彼特·贝布 Pete Bebb
       罗杰·库帕里安 Roger Kupelian
        Mitch Fishman
        Alex M. Cacciarelli
       弗朗索瓦·兰伯特 François Lambert
       丹尼尔·梅利兹 Daniel Mellitz
       丹·斯密泽克 Dan Smiczek
       马特·马格诺利亚 Matt Magnolia
       Todd Perry Todd Perry
       Bud Myrick Bud Myrick
       Tricia Barrett Tricia Barrett
       卡罗琳·布鲁克斯 Carolyn Brooks
       Amani Williams Amani Williams
       Lori C. Miller Lori C. Miller
       Brett Boggs Brett Boggs
       夏伊娜·霍尔姆斯 Shaina Holmes
       Corey Garnett Corey Garnett
       贾斯汀·琼斯 Justin Jones
       Scott Beverly Scott Beverly
       彼得·江 Peter Chiang
       格登·特鲁布拉德 Guerdon Trueblood
       Mike Wassel Mike Wassel
       罗伯特·韦弗 Robert Weaver
       Jelena Stojanovic Jelena Stojanovic
       迪伦·科尔 Dylan Cole
       Douglas Bloom Douglas Bloom
       Pieter Warmington Pieter Warmington
       罗恩·克拉布 Ron Crabb
       大卫·维克里 David Vickery
       张鹏 Peng Zhang
       Chad Taylor Chad Taylor
       帕特里克·塔特普洛斯 Patrick Tatopoulos
       布莱恩·康纳 Brian Connor
       杰米·迪克森 Jamie Dixon
       罗科·焦弗雷 Rocco Gioffre
       Greg Groenekamp Greg Groenekamp
       Sherry Hitch Sherry Hitch
       伊恩·亨特 Ian Hunter
       理查德·松下 Richard Matsushita
       马米·麦卡尔 Mamie McCall
       David Sosalla David Sosalla
       罗伯特·斯特罗姆伯格 Robert Stromberg
       迪克·费朗 Deak Ferrand
       迦勒·J·霍华德 Caleb J. Howard
       多恩·休布勒 Dorne Huebler
       Lisa Goldberg Lisa Goldberg
       Gary Jackemuk Gary Jackemuk
       布莱恩·哈纳伯 Brian Hanable
       罗伯特·查平 Robert Chapin
       兰迪·布朗 Randy Brown
       John Cassella John Cassella
       帕斯卡尔·沙皮伊 Pascal Chappuis
       加文·格雷厄姆 Gavin Graham
       斯蒂芬·罗森包姆 Stephen Rosenbaum
       巴勃罗·赫尔曼 Pablo Helman
       托马斯·J·史密斯 Thomas J. Smith
       亚历克斯·伍特克 Alex Wuttke
       布兰登·克雷格 Brandon Craig
       道格·卢伯茨 Doug Luberts
       迈克·奥尼尔 Mike O'Neal
       皮特·汉森 Pete Hanson
       Tim T. Cunningham Tim T. Cunningham
       萨德·贝尔 Thad Beier

◎标  签 科幻 / 动作 / 美国 / 文·迪塞尔 / 美国电影 / 2004 / 星际传奇2 / 星际传奇

◎简  介
  从第一集里的星球逃出之后,因为在逃杀人犯的身份,瑞迪克(范·迪塞尔 Vin Diesel 饰)为了不断躲避赏金猎人的追捕,不断在各个星球之间游走,摆脱追捕。而整个宇宙,此时却笼罩在黑暗恐怖之中。一个名叫劳德·马歇尔(科鲁姆·费奥瑞 Colm Feore 饰)的统治者,正 打着宗教的旗号,在全宇宙展开侵略。因为在上一集里面所救的小女孩儿基拉(艾莉克莎·黛沃洛斯 Alexa Davalos 饰)不幸被囚禁在了一颗昼夜温差极大的星球上。为了救出她,瑞迪克不惜向赏金猎人低头,让他们将自己带到这颗星球的监狱里。在救出基拉的过程中,瑞迪克获得元素种族大使亚伦(朱迪·丹奇 Judi Dench 饰)的帮助,并逐渐帮他找回了自己的身世之谜。原来,这场星际浩劫的挑起者劳德•马歇尔正是当年摧毁瑞迪克的星球的人。为了报仇,瑞迪克向星际之王发起了挑战……
  1. ##### MediaInfo ######
  2. General
  3. Unique ID                                : 191033685071933616663791560669895383366 (0x8FB7BFDBBCA03A4CB1FCF399D544D946)
  4. Complete name                            : The.Chronicles.of.Riddick.2004.BluRay.1080p.x265.10bit-MiniHD.mkv
  5. Format                                   : Matroska
  6. Format version                           : Version 4
  7. File size                                : 5.96 GiB
  8. Duration                                 : 2 h 14 min
  9. Overall bit rate                         : 6 363 kb/s
  10. Movie name                               : The Chronicles of Riddick 2004 Directors Cut  (1080p x265 q22 S88 Joy)[UTR]
  11. Encoded date                             : UTC 2018-02-07 03:29:05
  12. Writing application                      : mkvmerge v20.0.0 ('I Am The Sun') 64-bit
  13. Writing library                          : libebml v1.3.5 + libmatroska v1.4.8
  14. Cover                                    : Yes
  15. Attachments                              : cover.jpg
  16. Video
  17. ID                                       : 1
  18. Format                                   : HEVC
  19. Format/Info                              : High Efficiency Video Coding
  20. Format profile                           : Main 10@L4@Main
  21. Codec ID                                 : V_MPEGH/ISO/HEVC
  22. Duration                                 : 2 h 14 min
  23. Bit rate                                 : 5 709 kb/s
  24. Width                                    : 1 920 pixels
  25. Height                                   : 800 pixels
  26. Display aspect ratio                     : 2.40:1
  27. Frame rate mode                          : Constant
  28. Frame rate                               : 23.976 (24000/1001/53354) FPS
  29. Color space                              : YUV
  30. Chroma subsampling                       : 4:2:0
  31. Bit depth                                : 10 bits
  32. Bits/(Pixel*Frame)                       : 0.155
  33. Stream size                              : 5.35 GiB (90%)
  34. Writing library                          : x265 2.6+2-32e6f04b8713:[Windows][GCC 7.2.0][64 bit] 10bit
  35. Encoding settings                        : cpuid=533541173503 / frame-threads=3 / numa-pools=8 / wpp / no-pmode / no-pme / no-psnr / no-ssim / log-level=2 / input-csp=1 / input-res=1920x800 / interlace=0 / total-frames=192911 / level-idc=0 / high-tier=1 / uhd-bd=0 / ref=5 / no-allow-non-conformance / no-repeat-headers / annexb / no-aud / no-hrd / info / hash=0 / no-temporal-layers / no-open-gop / min-keyint=1 / keyint=360 / bframes=8 / b-adapt=2 / b-pyramid / bframe-bias=0 / rc-lookahead=60 / lookahead-slices=4 / NTMzNTQ=uuDQuD2mJt9fsCf / scenecut=40 / no-intra-refresh / ctu=32 / min-cu-size=8 / rect / no-amp / max-tu-size=16 / tu-inter-depth=2 / tu-intra-depth=2 / limit-tu=4 / rdoq-level=1 / dynamic-rd=0.00 / ssim-rd / signhide / no-tskip / nr-intra=0 / nr-inter=0 / no-constrained-intra / no-strong-intra-smoothing / max-merge=3 / limit-refs=2 / limit-modes / me=3 / subme=5 / merange=25 / temporal-mvp / weightp / weightb / no-analyze-src-pics / deblock=-1:-1 / no-sao / no-sao-non-deblock / rd=4 / no-early-skip / rskip / no-fast-intra / no-tskip-fast / no-cu-lossless / b-intra / no-splitrd-skip / rdpenalty=1 / psy-rd=0.00 / psy-rdoq=5.00 / no-rd-refine / analysis-reuse-mode=0 / no-lossless / cbqpoffs=-2 / crqpoffs=-2 / rc=crf / crf=19.0 / qcomp=0.70 / qpstep=4 / stats-write=0 / stats-read=0 / ipratio=1.40 / pbratio=1.30 / aq-mode=2 / aq-strength=0.80 / cutree / zone-count=0 / no-strict-cbr / qg-size=16 / no-rc-grain / qpmax=69 / qpmin=0 / no-const-vbv / sar=1 / overscan=0 / videoformat=5 / range=0 / colorprim=1 / transfer=2 / colormatrix=2 / chromaloc=0 / display-window=0 / max-cll=0,0 / min-luma=0 / max-luma=1023 / log2-max-poc-lsb=8 / vui-timing-info / vui-hrd-info / slices=1 / no-opt-qp-pps / no-opt-ref-list-length-pps / no-multi-pass-opt-rps / scenecut-bias=0.05 / no-opt-cu-delta-qp / no-aq-motion / no-hdr / no-hdr-opt / no-dhdr10-opt / analysis-reuse-level=5 / scale-factor=0 / refine-intra=0 / refine-inter=0 / refine-mv=0 / no-limit-sao / ctu-info=0 / no-lowpass-dct / refine-mv-type=0 / copy-pic=1
  36. Default                                  : Yes
  37. Forced                                   : No
  38. Color range                              : Limited
  39. Color primaries                          : BT.709
  40. Audio
  41. ID                                       : 2
  42. Format                                   : AC-3
  43. Format/Info                              : Audio Coding 3
  44. Commercial name                          : Dolby Digital
  45. Codec ID                                 : A_AC3
  46. Duration                                 : 2 h 14 min
  47. Bit rate mode                            : Constant
  48. Bit rate                                 : 640 kb/s
  49. Channel(s)                               : 6 channels
  50. Channel layout                           : L R C LFE Ls Rs
  51. Sampling rate                            : 48.0 kHz
  52. Frame rate                               : 31.250 FPS (1536 SPF)
  53. Compression mode                         : Lossy
  54. Stream size                              : 614 MiB (10%)
  55. Language                                 : English
  56. Service kind                             : Complete Main
  57. Default                                  : Yes
  58. Forced                                   : No
  59. Text
  60. ID                                       : 3
  61. Format                                   : PGS
  62. Muxing mode                              : zlib
  63. Codec ID                                 : S_HDMV/PGS
  64. Codec ID/Info                            : Picture based subtitle format used on BDs/HD-DVDs
  65. Duration                                 : 2 h 2 min
  66. Bit rate                                 : 27.3 kb/s
  67. Count of elements                        : 1722
  68. Stream size                              : 24.0 MiB (0%)
  69. Language                                 : Chinese
  70. Default                                  : Yes
  71. Forced                                   : No
  72. Menu
  73. 00:00:00.000                             : en:Chapter 01
  74. 00:02:39.242                             : en:Chapter 02
  75. 00:07:05.425                             : en:Chapter 03
  76. 00:11:25.309                             : en:Chapter 04
  77. 00:15:31.472                             : en:Chapter 05
  78. 00:20:58.674                             : en:Chapter 06
  79. 00:27:11.630                             : en:Chapter 07
  80. 00:31:27.218                             : en:Chapter 08
  81. 00:38:52.246                             : en:Chapter 09
  82. 00:43:32.234                             : en:Chapter 10
  83. 00:47:18.335                             : en:Chapter 11
  84. 00:53:38.256                             : en:Chapter 12
  85. 01:01:36.567                             : en:Chapter 13
  86. 01:04:29.740                             : en:Chapter 14
  87. 01:08:45.496                             : en:Chapter 15
  88. 01:11:43.090                             : en:Chapter 16
  89. 01:17:18.967                             : en:Chapter 17
  90. 01:22:49.923                             : en:Chapter 18
  91. 01:29:04.881                             : en:Chapter 19
  92. 01:32:42.390                             : en:Chapter 20
  93. 01:41:13.567                             : en:Chapter 21
  94. 01:44:28.136                             : en:Chapter 22
  95. 01:48:15.113                             : en:Chapter 23
  96. 01:53:18.500                             : en:Chapter 24
  97. 01:57:02.598                             : en:Chapter 25
  98. 02:00:00.610                             : en:Chapter 26
  99. 02:03:05.669                             : en:Chapter 27
  100. 02:04:07.982                             : en:Chapter 28



此处一般会放置磁力链或种子下载链接,不过此链接需要注册会员才能看到,点击“立即注册”
磁力链下载【下载链接仅对注册会员开放,登陆后可见】
BT9527电影天堂 1、BT9527电影天堂提供的BT文件均来源于互联网抓取,只供网友学习交流、技术提升使用。
2、我们遵守BitTorrent点对点协议原则,任何版权问题请联系原资源发布商,我们不处理任何版权纠纷,谢谢!如有争议请联系邮箱:BT9527#hotmail.com(#换成@)
3、如果您发现某页面或地址有错误,请联系站长邮箱BT9527#hotmail.com(#换成@),我们会尽快处理。您的热心是对BT9527电影天堂最大的支持。
4、本站建议去正规影院观看电影以支持电影行业发展。
最新回复 (0)

你可以在 登录 or 注册 后,对此帖发表评论!

返回
发新帖