星际传奇[中文字幕].Pitch.Black.2000.BluRay.1080p.x265.10bit-MiniHD 6.99GB

版主小s 3月前 124

✔资源类型:暂未分类   ✔电影年份:更 早   ✔电影地区:欧美   ✔电影分类:动作

◎标  题 星际传奇
◎译  名 黑煞天魔(港) / 漆黑一片 / The Chronicles of Riddick: Pitch Black
◎片  名 Pitch Black
◎年  代 2000
◎产  地 美国
◎类  别 动作 / 科幻 / 惊悚
◎语  言 英语 / 阿拉伯语
◎上映日期 2000-02-18
◎IMDb评分 7.1/10 (236694人评价)
◎IMDb链接 https://www.imdb.com/title/tt0134847/
◎豆瓣评分 7.2/10 (29290人评价)
◎豆瓣链接 https://movie.douban.com/subject/1296459/
◎片  长 109 分钟
◎导  演 大卫·杜西 David Twohy
◎编  剧 吉姆·维特 Jim Wheat
       肯·维特 Ken Wheat
       大卫·杜西 David Twohy
◎演  员 范·迪塞尔 Vin Diesel
       拉达·米切尔 Radha Mitchell
       科尔·豪瑟 Cole Hauser
       凯斯·大卫 Keith David
       刘易斯·菲茨-杰拉德 Lewis Fitz-Gerald
       克劳迪娅·布莱克 Claudia Black
       莱阿纳·格利菲斯 Rhiana Griffith
       John Moore John Moore
       西蒙·布尔克 Simon Burke
       费拉斯·迪拉尼 Firass Dirani
       彼得·江 Peter Chiang
       肯·图希 Ken Twohy
       特德·菲尔德 Ted Field
       格里莫·瑞维尔 Graeme Revell
       大卫·艾格比 David Eggby
       玛丽·韦尔涅 Mary Vernieu
       格雷厄姆·格雷斯·沃克 Graham 'Grace' Walker
       伊恩·格雷西 Ian Gracie
       Anna Borghesi Anna Borghesi
       Guy Campbell Guy Campbell
       卡罗琳·康宁安 Carolynne Cunningham
       Marc Ashton Marc Ashton
       Derek Wentworth Derek Wentworth
       安娜·福斯特 Anna Foerster
       Forest Fischer Forest Fischer
       麦克斯·丹尼森 Max Dennison
       彼得·江 Peter Chiang
       Scott Beverly Scott Beverly
       彼特·贝布 Pete Bebb
       Robin Aristorenas Robin Aristorenas
       保罗·J·富兰克林 Paul J. Franklin
       José Granell José Granell
       马修·格拉茨纳 Matthew Gratzner
       Angie Wills Angie Wills
       Robin Huffer Robin Huffer
       伊恩·亨特 Ian Hunter
       Leigh-Alexandra Jacob Leigh-Alexandra Jacob
       Adam McInnes Adam McInnes
       查理·诺伯 Charlie Noble
       Paul Riddle Paul Riddle
       Alex Hope Alex Hope
       Barrie Hemsley Barrie Hemsley
       Christopher Dusendschon Christopher Dusendschon
       弗雷泽·丘吉尔 Frazer Churchill
       乔恩·萨姆 Jon Thum
       Matthew Gidney Matthew Gidney
       皮特·汉森 Pete Hanson
       R. Michael Stringer R. Michael Stringer
       Rick Leary Rick Leary
       James Waterhouse James Waterhouse
       伊恩·奥康纳 Ian O'Connor
       理查德·贝恩 Richard Bain
       大卫·特拉蒙特 David Tremont

◎简  介
  在浩瀚的宇宙间,一艘名为猎人号的商用飞船正进行着漫长的旅程。船上搭载着40位乘客,其中包括重刑罪犯理查·雷迪克(Vin Diesel 饰)。当行驶到丹吉尔星系时,突如其来的事故令飞船遭受重创,空气飞速泄漏,最终迫降到一颗炎热而荒凉的星球上。着陆时的巨大冲击力几乎让飞船支离破碎,死伤者众多。幸存者们来到这片陌生的国土,严酷的自然环境考验着每一个人,不同民族不同职业的他们此时必须捐弃前嫌,联合起来。他们不仅要与天空中三个太阳作抗争,还要时刻提防隐藏在黑暗中的危险……                                    
                                本片荣获2001年澳大利亚摄影师协会年度最佳摄影师和金三角架奖。
  1. ##### MediaInfo ######
  2. General
  3. Unique ID                                : 315863056624820097095066571772611626057 (0xEDA1030C661E5AA582CECF9257518449)
  4. Complete name                            : Pitch.Black.2000.BluRay.1080p.x265.10bit-MiniHD.mkv
  5. Format                                   : Matroska
  6. Format version                           : Version 4
  7. File size                                : 6.99 GiB
  8. Duration                                 : 1 h 51 min
  9. Overall bit rate                         : 8 936 kb/s
  10. Encoded date                             : UTC 2018-02-05 13:37:54
  11. Writing application                      : mkvmerge v20.0.0 ('I Am The Sun') 64-bit
  12. Writing library                          : libebml v1.3.5 + libmatroska v1.4.8
  13. Video
  14. ID                                       : 1
  15. Format                                   : HEVC
  16. Format/Info                              : High Efficiency Video Coding
  17. Format profile                           : Main 10@L4@Main
  18. Codec ID                                 : V_MPEGH/ISO/HEVC
  19. Duration                                 : 1 h 51 min
  20. Bit rate                                 : 8 282 kb/s
  21. Width                                    : 1 920 pixels
  22. Height                                   : 816 pixels
  23. Display aspect ratio                     : 2.35:1
  24. Frame rate mode                          : Constant
  25. Frame rate                               : 23.976 (24000/1001/53354) FPS
  26. Color space                              : YUV
  27. Chroma subsampling                       : 4:2:0
  28. Bit depth                                : 10 bits
  29. Bits/(Pixel*Frame)                       : 0.220
  30. Stream size                              : 6.47 GiB (93%)
  31. Writing library                          : x265 2.6+2-32e6f04b8713:[Windows][GCC 7.2.0][64 bit] 10bit
  32. Encoding settings                        : cpuid=533541173503 / frame-threads=3 / numa-pools=8 / wpp / no-pmode / no-pme / no-psnr / no-ssim / log-level=2 / input-csp=1 / input-res=1920x816 / interlace=0 / total-frames=161002 / level-idc=0 / high-tier=1 / uhd-bd=0 / ref=5 / no-allow-non-conformance / no-repeat-headers / annexb / no-aud / no-hrd / info / hash=0 / no-temporal-layers / no-open-gop / min-keyint=1 / keyint=360 / bframes=8 / b-adapt=2 / b-pyramid / bframe-bias=0 / rc-lookahead=60 / lookahead-slices=4 / NTMzNTQ=uuDQuD2mJt9fsCf / scenecut=40 / no-intra-refresh / ctu=32 / min-cu-size=8 / rect / no-amp / max-tu-size=16 / tu-inter-depth=2 / tu-intra-depth=2 / limit-tu=4 / rdoq-level=1 / dynamic-rd=0.00 / ssim-rd / signhide / no-tskip / nr-intra=0 / nr-inter=0 / no-constrained-intra / no-strong-intra-smoothing / max-merge=3 / limit-refs=2 / limit-modes / me=3 / subme=5 / merange=25 / temporal-mvp / weightp / weightb / no-analyze-src-pics / deblock=-1:-1 / no-sao / no-sao-non-deblock / rd=4 / no-early-skip / rskip / no-fast-intra / no-tskip-fast / no-cu-lossless / b-intra / no-splitrd-skip / rdpenalty=1 / psy-rd=0.00 / psy-rdoq=5.00 / no-rd-refine / analysis-reuse-mode=0 / no-lossless / cbqpoffs=-2 / crqpoffs=-2 / rc=crf / crf=18.0 / qcomp=0.70 / qpstep=4 / stats-write=0 / stats-read=0 / ipratio=1.40 / pbratio=1.30 / aq-mode=3 / aq-strength=0.80 / cutree / zone-count=0 / no-strict-cbr / qg-size=16 / no-rc-grain / qpmax=69 / qpmin=0 / no-const-vbv / sar=1 / overscan=0 / videoformat=5 / range=0 / colorprim=1 / transfer=2 / colormatrix=2 / chromaloc=0 / display-window=0 / max-cll=0,0 / min-luma=0 / max-luma=1023 / log2-max-poc-lsb=8 / vui-timing-info / vui-hrd-info / slices=1 / no-opt-qp-pps / no-opt-ref-list-length-pps / no-multi-pass-opt-rps / scenecut-bias=0.05 / no-opt-cu-delta-qp / no-aq-motion / no-hdr / no-hdr-opt / no-dhdr10-opt / analysis-reuse-level=5 / scale-factor=0 / refine-intra=0 / refine-inter=0 / refine-mv=0 / no-limit-sao / ctu-info=0 / no-lowpass-dct / refine-mv-type=0 / copy-pic=1
  33. Default                                  : Yes
  34. Forced                                   : No
  35. Color range                              : Limited
  36. Color primaries                          : BT.709
  37. Audio
  38. ID                                       : 2
  39. Format                                   : AC-3
  40. Format/Info                              : Audio Coding 3
  41. Commercial name                          : Dolby Digital
  42. Codec ID                                 : A_AC3
  43. Duration                                 : 1 h 51 min
  44. Bit rate mode                            : Constant
  45. Bit rate                                 : 640 kb/s
  46. Channel(s)                               : 6 channels
  47. Channel layout                           : L R C LFE Ls Rs
  48. Sampling rate                            : 48.0 kHz
  49. Frame rate                               : 31.250 FPS (1536 SPF)
  50. Compression mode                         : Lossy
  51. Stream size                              : 512 MiB (7%)
  52. Language                                 : English
  53. Service kind                             : Complete Main
  54. Default                                  : Yes
  55. Forced                                   : No
  56. Text
  57. ID                                       : 3
  58. Format                                   : PGS
  59. Muxing mode                              : zlib
  60. Codec ID                                 : S_HDMV/PGS
  61. Codec ID/Info                            : Picture based subtitle format used on BDs/HD-DVDs
  62. Duration                                 : 1 h 44 min
  63. Bit rate                                 : 26.3 kb/s
  64. Count of elements                        : 1817
  65. Stream size                              : 19.7 MiB (0%)
  66. Language                                 : Chinese
  67. Default                                  : Yes
  68. Forced                                   : No
  69. Menu
  70. 00:00:00.000                             : en:00:00:00.000
  71. 00:02:56.885                             : en:00:02:56.885
  72. 00:08:28.007                             : en:00:08:28.007
  73. 00:17:05.858                             : en:00:17:05.858
  74. 00:27:13.632                             : en:00:27:13.632
  75. 00:32:27.988                             : en:00:32:27.988
  76. 00:36:49.916                             : en:00:36:49.916
  77. 00:46:49.390                             : en:00:46:49.390
  78. 00:56:08.907                             : en:00:56:08.907
  79. 01:02:45.678                             : en:01:02:45.678
  80. 01:08:07.750                             : en:01:08:07.750
  81. 01:14:22.291                             : en:01:14:22.291
  82. 01:20:00.504                             : en:01:20:00.504
  83. 01:25:38.800                             : en:01:25:38.800
  84. 01:30:14.909                             : en:01:30:14.909
  85. 01:38:59.976                             : en:01:38:59.976
  86. 01:43:37.878                             : en:01:43:37.878
  87. 01:46:13.867                             : en:01:46:13.867





此处一般会放置磁力链或种子下载链接,不过此链接需要注册会员才能看到,点击“立即注册”
磁力链下载【下载链接仅对注册会员开放,登陆后可见】
BT9527电影天堂 1、BT9527电影天堂提供的BT文件均来源于互联网抓取,只供网友学习交流、技术提升使用。
2、我们遵守BitTorrent点对点协议原则,任何版权问题请联系原资源发布商,我们不处理任何版权纠纷,谢谢!如有争议请联系邮箱:BT9527#hotmail.com(#换成@)
3、如果您发现某页面或地址有错误,请联系站长邮箱BT9527#hotmail.com(#换成@),我们会尽快处理。您的热心是对BT9527电影天堂最大的支持。
4、本站建议去正规影院观看电影以支持电影行业发展。
最新回复 (0)

你可以在 登录 or 注册 后,对此帖发表评论!

返回
发新帖