明日世界[简繁字幕].Tomorrowland.2015.BluRay.1080p.x265.10bit-MiniHD 5.00GB

版主小s 4天前 45

✔资源类型:暂未分类   ✔电影年份:2015   ✔电影地区:欧美   ✔电影分类:动作

◎标  题 明日世界
◎译  名 未来乐园 / 未来世界 / 1952 / Tomorrowland: A World Beyond / Project T
◎片  名 Tomorrowland
◎年  代 2015
◎产  地 美国 / 西班牙 / 法国 / 加拿大 / 英国
◎类  别 动作 / 科幻 / 冒险
◎语  言 英语 / 法语 / 日语
◎上映日期 2015-05-26(中国大陆) / 2015-05-22(美国)
◎IMDb评分 6.4/10 (178344人评价)
◎IMDb链接 https://www.imdb.com/title/tt1964418/
◎豆瓣评分 6.4/10 (62262人评价)
◎豆瓣链接 https://movie.douban.com/subject/6873042/
◎片  长 130分钟
◎导  演 布拉德·伯德 Brad Bird
◎编  剧 布拉德·伯德 Brad Bird
       达蒙·林德洛夫 Damon Lindelof
       杰夫·詹森 Jeff Jensen
◎演  员 布丽特·罗伯森 Britt Robertson
       乔治·克鲁尼 George Clooney
       拉菲·卡西迪 Raffey Cassidy
       休·劳瑞 Hugh Laurie
       托马斯·罗宾逊 Thomas Robinson
       皮尔斯·加格农 Pierce Gagnon
       蒂姆·麦格罗 Tim McGraw
       朱迪·格雷尔 Judy Greer
       凯瑟琳·哈恩 Kathryn Hahn
       科甘-迈克尔·凯 Keegan-Michael Key
       洛奇林·莫罗 Lochlyn Munro
       阿莉娅·奥伯里恩 Aliyah O'Brien
       达伦·萨赫拉维 Darren Shahlavi
       迈克尔·罗 Michael Rowe
       克里斯·鲍尔 Chris Bauer
       莫妮卡·甘德顿 Monique Ganderton
       保罗·麦克吉莱恩 Paul McGillion
       艾米·伊斯特尔 Amy Esterle
       杰迪代亚·古达克 Jedidiah Goodacre
       马库斯·罗斯纳 Marcus Rosner
       马修·麦考尔 Matthew MacCaull
       克林特·卡尔顿 Clint Carleton
       迈克·吉亚奇诺 Michael Giacchino
       帕特里克·萨邦圭 Patrick Sabongui
       范哲琛 Zhechen Fan
       弗雷泽·科比特 Fraser Corbett
       加里·切克 Gary Chalk
       仙莎·拉德蕾 Xantha Radley
       汤姆·巴特勒 Tom Butler
       杰夫·奎卡 Jeff Kryka
       大卫·尼克 David Nykl
       Parm Soor Parm Soor
       布拉德·伯德 Brad Bird
       迈克·吉亚奇诺 Michael Giacchino
       克劳迪奥·米兰达 Claudio Miranda
       沃尔特·默奇 Walter Murch
       杰弗里·库兰 Jeffrey Kurland

◎标  签 科幻 / 美国 / 2015 / 冒险 / 迪士尼 / 乔治·克鲁尼 / Disney / 动作

◎简  介
  中年男子弗兰克·沃克(乔治·克鲁尼 George Clooney 饰)和身边的女孩凯茜·牛顿(布丽特·罗伯森 Britt Robertson 饰)大吐苦水,他慨叹现代社会充斥了战争、饥饿、灾难以及种种不公,他回忆起自己童年时代的一段经历。当年小小的弗兰克(托马斯•罗宾逊 Thomas Robinson 饰)带着自己的得意发明来到某主题公园,结果却碰了一鼻子灰。而美丽的少女雅典娜(拉菲•卡西迪 Raffey Cassidy 饰)偷偷伸出援手,让他见识了令人咋舌的未来世界。与之相对,凯茜则是对未来充满幻想的阳光女孩,她渴望有朝一日遨游太空。心怀梦想的她甚至私闯NASA,为此惹了不小的麻烦,不过却由此得到一枚神秘的徽章从而结识了弗兰克。                                    
                                这一老一少的命运相逢,让充满幻想的未来世界不再遥远……
  1. ##### MediaInfo ######
  2. General
  3. Unique ID                                : 178027265560384567713108185742756663049 (0x85EECDDDD2E36F35AE5C7A50A8A9CF09)
  4. Complete name                            : Tomorrowland.2015.BluRay.1080p.x265.10bit-MiniHD.mkv
  5. Format                                   : Matroska
  6. Format version                           : Version 4
  7. File size                                : 5.00 GiB
  8. Duration                                 : 2 h 10 min
  9. Overall bit rate                         : 5 506 kb/s
  10. Encoded date                             : UTC 2018-01-31 02:51:31
  11. Writing application                      : mkvmerge v8.5.2 ('Crosses') 32bit
  12. Writing library                          : libebml v1.3.3 + libmatroska v1.4.4
  13. Video
  14. ID                                       : 1
  15. Format                                   : HEVC
  16. Format/Info                              : High Efficiency Video Coding
  17. Format profile                           : Main 10@L4@Main
  18. Codec ID                                 : V_MPEGH/ISO/HEVC
  19. Duration                                 : 2 h 10 min
  20. Bit rate                                 : 4 762 kb/s
  21. Width                                    : 1 920 pixels
  22. Height                                   : 872 pixels
  23. Display aspect ratio                     : 2.2:1
  24. Frame rate mode                          : Constant
  25. Frame rate                               : 23.976 (24000/1001/53354) FPS
  26. Color space                              : YUV
  27. Chroma subsampling                       : 4:2:0
  28. Bit depth                                : 10 bits
  29. Bits/(Pixel*Frame)                       : 0.119
  30. Stream size                              : 4.33 GiB (86%)
  31. Writing library                          : x265 2.6+14-f09f3b4a2115:[Windows][GCC 7.2.0][64 bit] 10bit
  32. Encoding settings                        : cpuid=533541173503 / frame-threads=2 / numa-pools=4 / wpp / no-pmode / no-pme / no-psnr / no-ssim / log-level=2 / input-csp=1 / input-res=1920x872 / interlace=0 / total-frames=187092 / level-idc=0 / high-tier=1 / uhd-bd=0 / ref=5 / no-allow-non-conformance / no-repeat-headers / annexb / no-aud / no-hrd / info / hash=0 / no-temporal-layers / no-open-gop / min-keyint=1 / keyint=360 / gop-lookahead=0 / bframes=8 / b-adapt=2 / b-pyramid / bframe-bias=0 / rc-lookahead=60 / lookahead-slices=4 / NTMzNTQ=uuDQuD2mJt9fsCf / scenecut=40 / no-intra-refresh / ctu=32 / min-cu-size=8 / no-rect / no-amp / max-tu-size=16 / tu-inter-depth=2 / tu-intra-depth=2 / limit-tu=4 / rdoq-level=2 / dynamic-rd=0.00 / ssim-rd / signhide / no-tskip / nr-intra=0 / nr-inter=0 / no-constrained-intra / no-strong-intra-smoothing / max-merge=3 / limit-refs=2 / limit-modes / me=3 / subme=5 / merange=25 / temporal-mvp / weightp / weightb / no-analyze-src-pics / deblock=-1:-1 / no-sao / no-sao-non-deblock / rd=4 / no-early-skip / no-rskip / no-fast-intra / no-tskip-fast / no-cu-lossless / b-intra / no-splitrd-skip / rdpenalty=1 / psy-rd=0.00 / psy-rdoq=5.00 / no-rd-refine / analysis-reuse-mode=0 / no-lossless / cbqpoffs=-2 / crqpoffs=-2 / rc=crf / crf=20.0 / qcomp=0.65 / qpstep=4 / stats-write=0 / stats-read=0 / ipratio=1.40 / pbratio=1.30 / aq-mode=2 / aq-strength=0.86 / cutree / zone-count=0 / no-strict-cbr / qg-size=16 / no-rc-grain / qpmax=69 / qpmin=0 / no-const-vbv / sar=1 / overscan=0 / videoformat=5 / range=0 / colorprim=1 / transfer=2 / colormatrix=2 / chromaloc=0 / display-window=0 / max-cll=0,0 / min-luma=0 / max-luma=1023 / log2-max-poc-lsb=8 / vui-timing-info / vui-hrd-info / slices=1 / no-opt-qp-pps / no-opt-ref-list-length-pps / no-multi-pass-opt-rps / scenecut-bias=0.05 / no-opt-cu-delta-qp / no-aq-motion / no-hdr / no-hdr-opt / no-dhdr10-opt / analysis-reuse-level=5 / scale-factor=0 / refine-intra=0 / refine-inter=0 / refine-mv=0 / no-limit-sao / ctu-info=0 / no-lowpass-dct / refine-mv-type=0 / copy-pic=1
  33. Default                                  : Yes
  34. Forced                                   : No
  35. Color range                              : Limited
  36. Color primaries                          : BT.709
  37. Audio
  38. ID                                       : 2
  39. Format                                   : AC-3
  40. Format/Info                              : Audio Coding 3
  41. Commercial name                          : Dolby Digital
  42. Codec ID                                 : A_AC3
  43. Duration                                 : 2 h 10 min
  44. Bit rate mode                            : Constant
  45. Bit rate                                 : 640 kb/s
  46. Channel(s)                               : 6 channels
  47. Channel layout                           : L R C LFE Ls Rs
  48. Sampling rate                            : 48.0 kHz
  49. Frame rate                               : 31.250 FPS (1536 SPF)
  50. Compression mode                         : Lossy
  51. Stream size                              : 595 MiB (12%)
  52. Service kind                             : Complete Main
  53. Default                                  : Yes
  54. Forced                                   : No
  55. Text #1
  56. ID                                       : 3
  57. Format                                   : PGS
  58. Muxing mode                              : zlib
  59. Codec ID                                 : S_HDMV/PGS
  60. Codec ID/Info                            : Picture based subtitle format used on BDs/HD-DVDs
  61. Duration                                 : 2 h 2 min
  62. Bit rate                                 : 11.0 kb/s
  63. Count of elements                        : 3036
  64. Stream size                              : 9.60 MiB (0%)
  65. Title                                    : CHT
  66. Language                                 : Chinese
  67. Default                                  : No
  68. Forced                                   : No
  69. Text #2
  70. ID                                       : 4
  71. Format                                   : PGS
  72. Muxing mode                              : zlib
  73. Codec ID                                 : S_HDMV/PGS
  74. Codec ID/Info                            : Picture based subtitle format used on BDs/HD-DVDs
  75. Duration                                 : 2 h 3 min
  76. Bit rate                                 : 13.2 kb/s
  77. Count of elements                        : 3132
  78. Stream size                              : 11.6 MiB (0%)
  79. Title                                    : CHS
  80. Language                                 : Chinese
  81. Default                                  : No
  82. Forced                                   : No
  83. Text #3
  84. ID                                       : 5
  85. Format                                   : PGS
  86. Muxing mode                              : zlib
  87. Codec ID                                 : S_HDMV/PGS
  88. Codec ID/Info                            : Picture based subtitle format used on BDs/HD-DVDs
  89. Duration                                 : 1 h 59 min
  90. Bit rate                                 : 86.1 kb/s
  91. Count of elements                        : 3897
  92. Stream size                              : 73.4 MiB (1%)
  93. Title                                    : CHS&ENG
  94. Language                                 : Chinese
  95. Default                                  : Yes
  96. Forced                                   : Yes
  97. Menu
  98. 00:00:00.000                             : en:00:00:00.000
  99. 00:16:12.013                             : en:00:16:12.013
  100. 00:21:56.565                             : en:00:21:56.565
  101. 00:28:52.189                             : en:00:28:52.189
  102. 00:37:37.046                             : en:00:37:37.046
  103. 00:46:35.418                             : en:00:46:35.418
  104. 00:55:01.048                             : en:00:55:01.048
  105. 01:11:48.471                             : en:01:11:48.471
  106. 01:19:18.087                             : en:01:19:18.087
  107. 01:26:45.033                             : en:01:26:45.033
  108. 01:30:57.702                             : en:01:30:57.702
  109. 01:38:05.296                             : en:01:38:05.296
  110. 01:49:50.501                             : en:01:49:50.501
  111. 01:56:11.298                             : en:01:56:11.298
  112. 02:01:26.946                             : en:02:01:26.946





此处一般会放置磁力链或种子下载链接,不过此链接需要注册会员才能看到,点击“立即注册”
磁力链下载【下载链接仅对注册会员开放,登陆后可见】
BT9527电影天堂 1、BT9527电影天堂提供的BT文件均来源于互联网抓取,只供网友学习交流、技术提升使用。
2、我们遵守BitTorrent点对点协议原则,任何版权问题请联系原资源发布商,我们不处理任何版权纠纷,谢谢!如有争议请联系邮箱:BT9527#hotmail.com(#换成@)
3、如果您发现某页面或地址有错误,请联系站长邮箱BT9527#hotmail.com(#换成@),我们会尽快处理。您的热心是对BT9527电影天堂最大的支持。
4、本站建议去正规影院观看电影以支持电影行业发展。
最新回复 (0)

你可以在 登录 or 注册 后,对此帖发表评论!

返回
发新帖