时间规划局[中英字幕].In.Time.2011.BluRay.1080p.x265.10bit-MiniHD 4.08GB

版主小s 1天前 14

✔资源类型:暂未分类   ✔电影年份:2011   ✔电影地区:欧美   ✔电影分类:动作

◎标  题 时间规划局
◎译  名 潜逃时空(港) / 钟点战(台) / 止时纪 / 我是凡人 / 现在
◎片  名 In Time
◎年  代 2011
◎产  地 美国
◎类  别 动作 / 科幻
◎语  言 英语
◎上映日期 2011-10-20(加州首映) / 2011-10-28(美国)
◎IMDb评分 6.7/10 (391723人评价)
◎IMDb链接 https://www.imdb.com/title/tt1637688/
◎豆瓣评分 7.0/10 (194329人评价)
◎豆瓣链接 https://movie.douban.com/subject/4924142/
◎片  长 109分钟
◎导  演 安德鲁·尼科尔 Andrew Niccol
◎编  剧 安德鲁·尼科尔 Andrew Niccol
◎演  员 阿曼达·塞弗里德 Amanda Seyfried
       贾斯汀·汀布莱克 Justin Timberlake
       基里安·墨菲 Cillian Murphy
       文森特·卡塞瑟 Vincent Kartheiser
       亚历克斯·帕蒂弗 Alex Pettyfer
       约翰尼·盖尔克奇 Johnny Galecki
       奥利维亚·王尔德 Olivia Wilde
       马特·波莫 Matt Bomer
       贝拉·希思科特 Bella Heathcote
       萨莎·彼福瓦洛娃 Sasha Pivovarova
       梅丽莎·奥德维 Melissa Ordway
       瑞秋·罗伯茨 Rachel Roberts
       斯特灵·苏利曼 Sterling Sulieman
       山姆·米德 Sam Meader
       August Emerson August Emerson
       祖勒卡·席尔瓦 Zuleyka Silver
       Seema Lazar Seema Lazar
       克里斯蒂安·马德森 Christian Madsen
       威廉·佩尔茨 william peltz
       法耶·金斯利 Faye Kingslee
       杰西卡·帕克·肯尼迪 Jessica Parker Kennedy
       艾玛·菲茨帕特里克 Emma Fitzpatrick

◎标  签 科幻 / 美国 / 人性 / 爱情 / 动作 / 剧情 / 2011 / 犯罪

◎简  介
    在未来,人类可以随心所欲的操控时间,改写年龄。在人类社会,不管这个人活多久,他的年龄被永远定格在25岁。因为没有了自然死亡,为了避免人口膨胀。人类社会抛弃了以往的货币,改用时间作为货币流通。一个人的时间用完之后,这个人就会死亡。一个名叫威尔(贾斯汀·丁伯莱克 Justin Timberlake 饰)的穷人,却意外获得了一笔巨大的财富,拥有了用不完的时间。但是却因为此事被锁定为一场谋杀案的嫌疑人,由此走上了逃亡之路。在逃亡过程中,绑架了时间银行的女继承人(阿曼达·塞弗里德 Amanda Seyfried 饰)。在整个逃亡过程中,他们之间迸发出了感情的火花。而且两人都对现有的时间管理机制都非常不满,进而联手起来对抗这个统治机构。仅凭两人之力能够推翻成熟的权力机构吗?
  1. ##### MediaInfo ######
  2. General
  3. Unique ID                                : 209628370231880028140073307446375789828 (0x9DB4F49E6B0364CDB60B919718CEB504)
  4. Complete name                            : In.Time.2011.BluRay.1080p.x265.10bit-MiniHD.mkv
  5. Format                                   : Matroska
  6. Format version                           : Version 4
  7. File size                                : 4.08 GiB
  8. Duration                                 : 1 h 49 min
  9. Overall bit rate                         : 5 342 kb/s
  10. Encoded date                             : UTC 2017-12-28 09:30:11
  11. Writing application                      : mkvmerge v8.5.2 ('Crosses') 32bit
  12. Writing library                          : libebml v1.3.3 + libmatroska v1.4.4
  13. Video
  14. ID                                       : 1
  15. Format                                   : HEVC
  16. Format/Info                              : High Efficiency Video Coding
  17. Format profile                           : Main 10@L4@Main
  18. Codec ID                                 : V_MPEGH/ISO/HEVC
  19. Duration                                 : 1 h 49 min
  20. Bit rate                                 : 4 684 kb/s
  21. Width                                    : 1 920 pixels
  22. Height                                   : 816 pixels
  23. Display aspect ratio                     : 2.35:1
  24. Frame rate mode                          : Constant
  25. Frame rate                               : 23.976 (24000/1001/53354) FPS
  26. Color space                              : YUV
  27. Chroma subsampling                       : 4:2:0
  28. Bit depth                                : 10 bits
  29. Bits/(Pixel*Frame)                       : 0.125
  30. Stream size                              : 3.58 GiB (88%)
  31. Writing library                          : x265 2.6+14-f09f3b4a2115:[Windows][GCC 7.2.0][64 bit] 10bit
  32. Encoding settings                        : cpuid=533541173503 / frame-threads=2 / numa-pools=4 / wpp / no-pmode / no-pme / no-psnr / no-ssim / log-level=2 / input-csp=1 / input-res=1920x816 / interlace=0 / total-frames=157206 / level-idc=0 / high-tier=1 / uhd-bd=0 / ref=5 / no-allow-non-conformance / no-repeat-headers / annexb / no-aud / no-hrd / info / hash=0 / no-temporal-layers / no-open-gop / min-keyint=1 / keyint=360 / gop-lookahead=0 / bframes=8 / b-adapt=2 / b-pyramid / bframe-bias=0 / rc-lookahead=60 / lookahead-slices=4 / NTMzNTQ=uuDQuD2mJt9fsCf / scenecut=40 / no-intra-refresh / ctu=32 / min-cu-size=8 / no-rect / no-amp / max-tu-size=16 / tu-inter-depth=2 / tu-intra-depth=2 / limit-tu=4 / rdoq-level=2 / dynamic-rd=0.00 / ssim-rd / signhide / no-tskip / nr-intra=0 / nr-inter=0 / no-constrained-intra / no-strong-intra-smoothing / max-merge=3 / limit-refs=2 / limit-modes / me=3 / subme=5 / merange=25 / temporal-mvp / weightp / weightb / no-analyze-src-pics / deblock=-1:-1 / no-sao / no-sao-non-deblock / rd=4 / no-early-skip / no-rskip / no-fast-intra / no-tskip-fast / no-cu-lossless / b-intra / no-splitrd-skip / rdpenalty=1 / psy-rd=0.00 / psy-rdoq=5.00 / no-rd-refine / analysis-reuse-mode=0 / no-lossless / cbqpoffs=-2 / crqpoffs=-2 / rc=crf / crf=17.0 / qcomp=0.65 / qpstep=4 / stats-write=0 / stats-read=0 / ipratio=1.40 / pbratio=1.30 / aq-mode=2 / aq-strength=0.90 / cutree / zone-count=0 / no-strict-cbr / qg-size=16 / no-rc-grain / qpmax=69 / qpmin=0 / no-const-vbv / sar=1 / overscan=0 / videoformat=5 / range=0 / colorprim=1 / transfer=2 / colormatrix=2 / chromaloc=0 / display-window=0 / max-cll=0,0 / min-luma=0 / max-luma=1023 / log2-max-poc-lsb=8 / vui-timing-info / vui-hrd-info / slices=1 / no-opt-qp-pps / no-opt-ref-list-length-pps / no-multi-pass-opt-rps / scenecut-bias=0.05 / no-opt-cu-delta-qp / no-aq-motion / no-hdr / no-hdr-opt / no-dhdr10-opt / analysis-reuse-level=5 / scale-factor=0 / refine-intra=0 / refine-inter=0 / refine-mv=0 / no-limit-sao / ctu-info=0 / no-lowpass-dct / refine-mv-type=0 / copy-pic=1
  33. Default                                  : Yes
  34. Forced                                   : No
  35. Color range                              : Limited
  36. Color primaries                          : BT.709
  37. Audio
  38. ID                                       : 2
  39. Format                                   : AC-3
  40. Format/Info                              : Audio Coding 3
  41. Commercial name                          : Dolby Digital
  42. Codec ID                                 : A_AC3
  43. Duration                                 : 1 h 49 min
  44. Bit rate mode                            : Constant
  45. Bit rate                                 : 640 kb/s
  46. Channel(s)                               : 6 channels
  47. Channel layout                           : L R C LFE Ls Rs
  48. Sampling rate                            : 48.0 kHz
  49. Frame rate                               : 31.250 FPS (1536 SPF)
  50. Compression mode                         : Lossy
  51. Stream size                              : 500 MiB (12%)
  52. Service kind                             : Complete Main
  53. Default                                  : Yes
  54. Forced                                   : No
  55. Text #1
  56. ID                                       : 3
  57. Format                                   : PGS
  58. Muxing mode                              : zlib
  59. Codec ID                                 : S_HDMV/PGS
  60. Codec ID/Info                            : Picture based subtitle format used on BDs/HD-DVDs
  61. Duration                                 : 1 h 48 min
  62. Bit rate                                 : 8 344 b/s
  63. Count of elements                        : 2186
  64. Stream size                              : 6.45 MiB (0%)
  65. Language                                 : Chinese
  66. Default                                  : Yes
  67. Forced                                   : No
  68. Text #2
  69. ID                                       : 4
  70. Format                                   : PGS
  71. Muxing mode                              : zlib
  72. Codec ID                                 : S_HDMV/PGS
  73. Codec ID/Info                            : Picture based subtitle format used on BDs/HD-DVDs
  74. Duration                                 : 1 h 48 min
  75. Bit rate                                 : 7 363 b/s
  76. Count of elements                        : 2120
  77. Stream size                              : 5.70 MiB (0%)
  78. Language                                 : English
  79. Default                                  : No
  80. Forced                                   : No
  81. Menu
  82. 00:00:00.000                             : en:Chapter 01
  83. 00:05:54.270                             : en:Chapter 02
  84. 00:10:50.733                             : en:Chapter 03
  85. 00:18:58.095                             : en:Chapter 04
  86. 00:22:16.376                             : en:Chapter 05
  87. 00:25:30.445                             : en:Chapter 06
  88. 00:29:51.915                             : en:Chapter 07
  89. 00:34:41.746                             : en:Chapter 08
  90. 00:38:24.885                             : en:Chapter 09
  91. 00:41:23.898                             : en:Chapter 10
  92. 00:44:44.723                             : en:Chapter 11
  93. 00:48:08.302                             : en:Chapter 12
  94. 00:51:32.547                             : en:Chapter 13
  95. 00:53:56.149                             : en:Chapter 14
  96. 00:56:16.873                             : en:Chapter 15
  97. 01:00:25.371                             : en:Chapter 16
  98. 01:05:41.145                             : en:Chapter 17
  99. 01:08:57.800                             : en:Chapter 18
  100. 01:11:19.483                             : en:Chapter 19
  101. 01:14:05.107                             : en:Chapter 20
  102. 01:16:48.979                             : en:Chapter 21
  103. 01:20:20.982                             : en:Chapter 22
  104. 01:22:44.292                             : en:Chapter 23
  105. 01:27:17.106                             : en:Chapter 24
  106. 01:29:22.398                             : en:Chapter 25
  107. 01:33:26.017                             : en:Chapter 26
  108. 01:37:16.956                             : en:Chapter 27
  109. 01:42:56.461                             : en:Chapter 28





此处一般会放置磁力链或种子下载链接,不过此链接需要注册会员才能看到,点击“立即注册”
磁力链下载【下载链接仅对注册会员开放,登陆后可见】
BT9527电影天堂 1、BT9527电影天堂提供的BT文件均来源于互联网抓取,只供网友学习交流、技术提升使用。
2、我们遵守BitTorrent点对点协议原则,任何版权问题请联系原资源发布商,我们不处理任何版权纠纷,谢谢!如有争议请联系邮箱:BT9527#hotmail.com(#换成@)
3、如果您发现某页面或地址有错误,请联系站长邮箱BT9527#hotmail.com(#换成@),我们会尽快处理。您的热心是对BT9527电影天堂最大的支持。
4、本站建议去正规影院观看电影以支持电影行业发展。
最新回复 (0)

你可以在 登录 or 注册 后,对此帖发表评论!

返回
发新帖