无法无天[国英多音轨/简繁英字幕].Lawless.2012.Bluray.1080p.x265.10bit.2Audio-MiniHD 8.82GB

版主小s 3月前 178

✔资源类型:暂未分类   ✔电影年份:2012   ✔电影地区:欧美   ✔电影分类:剧情

◎标  题 无法无天
◎译  名 野蛮正义(台) / 希望之乡 / 湿地传奇 / 世界上最潮湿的村落 / The Wettest County in the World
◎片  名 Lawless
◎年  代 2012
◎产  地 美国
◎类  别 剧情 / 犯罪 / 西部
◎语  言 英语
◎上映日期 2012-08-29(美国)
◎IMDb评分 7.3/10 (235894人评价)
◎IMDb链接 https://www.imdb.com/title/tt1212450/
◎豆瓣评分 7.3/10 (24039人评价)
◎豆瓣链接 https://movie.douban.com/subject/3025809/
◎片  长 116分钟
◎导  演 约翰·希尔寇特 John Hillcoat
◎编  剧 尼克·凯夫 Nick Cave
◎演  员 汤姆·哈迪 Tom Hardy
       盖·皮尔斯 Guy Pearce
       希亚·拉博夫 Shia LaBeouf
       加里·奥德曼 Gary Oldman
       杰西卡·查斯坦 Jessica Chastain
       米娅·华希科沃斯卡 Mia Wasikowska
       戴恩·德哈恩 Dane DeHaan
       诺亚·泰勒 Noah Taylor
       杰森·克拉克 Jason Clarke
       克里斯·麦加瑞 Chris McGarry
       马库斯 · 赫斯特 Marcus Hester
       罗恩·克林顿·史密斯 Ron Clinton Smith
       苏茜·比克 Susie Bick
       卢·坦普尔 Lew Temple

◎标  签 美国 / 犯罪 / 黑帮 / 西部片 / 剧情 / 2012 / 历史 / 动作

◎简  介
    20世纪三十年代的美国富兰克林,Bondurant家的三兄弟Forrest(汤姆·哈迪 Tom Hardy饰),Howard(杰森·克拉科 Jason Clarke饰)和 Jack(希亚·拉博夫 Shia LaBeouf饰)做私酒生意做得风生水起,在当地小有名气。然而当地真正的黑帮老大却是Floyd Banner(加里·奥德曼 Gary Oldman 饰)。Forrest的酒吧里新招了一名女服务生Maggie Beauford(杰西卡·查斯坦 Jessica Chastain 饰),而Jack则爱上了一个神父的女儿Bertha Minnix(米娅·华希科沃斯卡 Mia Wasikowska 饰)。Jack经常和他的好朋友Cricket Pate(戴恩·德哈恩 Dane DeHaan 饰)一起鼓捣一些新奇的东西,然而在他两个哥哥眼里他却始终是个不能真正参与到他们生意中的小孩。新上任的警官Charley Rakes(盖·皮尔斯 Guy Pearce 饰)看Bondurant三兄弟非常不顺眼,屡次挑起事端,三兄弟将如何面对挑战?
  1. ##### MediaInfo ######
  2. General
  3. Unique ID                                : 297952560730572205541181150910529627224 (0xE027936C5559E55E7513ECB4694F6458)
  4. Complete name                            : Lawless.2012.Bluray.1080p.x265.10bit.2Audio-MiniHD.mkv
  5. Format                                   : Matroska
  6. Format version                           : Version 4
  7. File size                                : 8.82 GiB
  8. Duration                                 : 1 h 55 min
  9. Overall bit rate                         : 10.9 Mb/s
  10. Encoded date                             : UTC 2018-07-04 01:51:16
  11. Writing application                      : mkvmerge v24.0.0 ('Beyond The Pale') 64-bit
  12. Writing library                          : libebml v1.3.6 + libmatroska v1.4.9
  13. Video
  14. ID                                       : 1
  15. Format                                   : HEVC
  16. Format/Info                              : High Efficiency Video Coding
  17. Format profile                           : Main 10@L4@Main
  18. Codec ID                                 : V_MPEGH/ISO/HEVC
  19. Duration                                 : 1 h 55 min
  20. Bit rate                                 : 9 587 kb/s
  21. Width                                    : 1 920 pixels
  22. Height                                   : 800 pixels
  23. Display aspect ratio                     : 2.40:1
  24. Frame rate mode                          : Constant
  25. Frame rate                               : 23.976 (24000/1001/53354) FPS
  26. Color space                              : YUV
  27. Chroma subsampling                       : 4:2:0
  28. Bit depth                                : 10 bits
  29. Bits/(Pixel*Frame)                       : 0.260
  30. Stream size                              : 7.75 GiB (88%)
  31. Writing library                          : x265 2.7+1-2aa737a99f51:[Windows][GCC 7.3.0][64 bit] 10bit
  32. Encoding settings                        : cpuid=533541173503 / frame-threads=4 / numa-pools=16 / wpp / no-pmode / no-pme / no-psnr / no-ssim / log-level=2 / input-csp=1 / input-res=1920x800 / interlace=0 / total-frames=166533 / level-idc=0 / high-tier=1 / uhd-bd=0 / ref=5 / no-allow-non-conformance / no-repeat-headers / annexb / no-aud / no-hrd / info / hash=0 / no-temporal-layers / no-open-gop / min-keyint=1 / keyint=360 / gop-lookahead=0 / bframes=8 / b-adapt=2 / b-pyramid / bframe-bias=0 / rc-lookahead=60 / lookahead-slices=4 / NTMzNTQ=uuDQuD2mJt9fsCf / scenecut=40 / radl=0 / no-intra-refresh / ctu=32 / min-cu-size=8 / rect / no-amp / max-tu-size=16 / tu-inter-depth=2 / tu-intra-depth=2 / limit-tu=4 / rdoq-level=1 / dynamic-rd=0.00 / no-ssim-rd / signhide / no-tskip / nr-intra=0 / nr-inter=0 / no-constrained-intra / no-strong-intra-smoothing / max-merge=3 / limit-refs=2 / limit-modes / me=3 / subme=5 / merange=25 / temporal-mvp / weightp / weightb / no-analyze-src-pics / deblock=-1:-1 / no-sao / no-sao-non-deblock / rd=4 / no-early-skip / rskip / no-fast-intra / no-tskip-fast / no-cu-lossless / b-intra / no-splitrd-skip / rdpenalty=1 / psy-rd=2.00 / psy-rdoq=5.00 / no-rd-refine / no-lossless / cbqpoffs=-2 / crqpoffs=-2 / rc=crf / crf=20.0 / qcomp=0.70 / qpstep=4 / stats-write=0 / stats-read=0 / ipratio=1.40 / pbratio=1.30 / aq-mode=1 / aq-strength=0.90 / cutree / zone-count=0 / no-strict-cbr / qg-size=16 / no-rc-grain / qpmax=69 / qpmin=0 / no-const-vbv / sar=1 / overscan=0 / videoformat=5 / range=0 / colorprim=1 / transfer=2 / colormatrix=2 / chromaloc=0 / display-window=0 / max-cll=0,0 / min-luma=0 / max-luma=1023 / log2-max-poc-lsb=8 / vui-timing-info / vui-hrd-info / slices=1 / no-opt-qp-pps / no-opt-ref-list-length-pps / no-multi-pass-opt-rps / scenecut-bias=0.05 / no-opt-cu-delta-qp / no-aq-motion / no-hdr / no-hdr-opt / no-dhdr10-opt / analysis-reuse-level=5 / scale-factor=0 / refine-intra=0 / refine-inter=0 / refine-mv=0 / no-limit-sao / ctu-info=0 / no-lowpass-dct / refine-mv-type=0 / copy-pic=1
  33. Default                                  : Yes
  34. Forced                                   : No
  35. Color range                              : Limited
  36. Color primaries                          : BT.709
  37. Audio #1
  38. ID                                       : 2
  39. Format                                   : AC-3
  40. Format/Info                              : Audio Coding 3
  41. Commercial name                          : Dolby Digital
  42. Codec ID                                 : A_AC3
  43. Duration                                 : 1 h 55 min
  44. Bit rate mode                            : Constant
  45. Bit rate                                 : 640 kb/s
  46. Channel(s)                               : 6 channels
  47. Channel layout                           : L R C LFE Ls Rs
  48. Sampling rate                            : 48.0 kHz
  49. Frame rate                               : 31.250 FPS (1536 SPF)
  50. Compression mode                         : Lossy
  51. Stream size                              : 530 MiB (6%)
  52. Language                                 : English
  53. Service kind                             : Complete Main
  54. Default                                  : Yes
  55. Forced                                   : No
  56. Audio #2
  57. ID                                       : 3
  58. Format                                   : AC-3
  59. Format/Info                              : Audio Coding 3
  60. Commercial name                          : Dolby Digital
  61. Codec ID                                 : A_AC3
  62. Duration                                 : 1 h 55 min
  63. Bit rate mode                            : Constant
  64. Bit rate                                 : 640 kb/s
  65. Channel(s)                               : 6 channels
  66. Channel layout                           : L R C LFE Ls Rs
  67. Sampling rate                            : 48.0 kHz
  68. Frame rate                               : 31.250 FPS (1536 SPF)
  69. Compression mode                         : Lossy
  70. Stream size                              : 530 MiB (6%)
  71. Language                                 : Chinese
  72. Service kind                             : Complete Main
  73. Default                                  : No
  74. Forced                                   : No
  75. Text #1
  76. ID                                       : 4
  77. Format                                   : PGS
  78. Muxing mode                              : zlib
  79. Codec ID                                 : S_HDMV/PGS
  80. Codec ID/Info                            : Picture based subtitle format used on BDs/HD-DVDs
  81. Duration                                 : 1 h 48 min
  82. Bit rate                                 : 29.1 kb/s
  83. Count of elements                        : 2484
  84. Stream size                              : 22.6 MiB (0%)
  85. Language                                 : English
  86. Default                                  : Yes
  87. Forced                                   : No
  88. Text #2
  89. ID                                       : 5
  90. Format                                   : PGS
  91. Muxing mode                              : zlib
  92. Codec ID                                 : S_HDMV/PGS
  93. Codec ID/Info                            : Picture based subtitle format used on BDs/HD-DVDs
  94. Duration                                 : 1 h 48 min
  95. Bit rate                                 : 31.9 kb/s
  96. Count of elements                        : 2101
  97. Stream size                              : 24.7 MiB (0%)
  98. Title                                    : 简英
  99. Language                                 : Chinese
  100. Default                                  : No
  101. Forced                                   : No
  102. Text #3
  103. ID                                       : 6
  104. Format                                   : PGS
  105. Muxing mode                              : zlib
  106. Codec ID                                 : S_HDMV/PGS
  107. Codec ID/Info                            : Picture based subtitle format used on BDs/HD-DVDs
  108. Duration                                 : 1 h 48 min
  109. Bit rate                                 : 17.3 kb/s
  110. Count of elements                        : 2131
  111. Stream size                              : 13.4 MiB (0%)
  112. Title                                    : 简中
  113. Language                                 : Chinese
  114. Default                                  : No
  115. Forced                                   : No
  116. Text #4
  117. ID                                       : 7
  118. Format                                   : PGS
  119. Muxing mode                              : zlib
  120. Codec ID                                 : S_HDMV/PGS
  121. Codec ID/Info                            : Picture based subtitle format used on BDs/HD-DVDs
  122. Duration                                 : 1 h 48 min
  123. Bit rate                                 : 17.5 kb/s
  124. Count of elements                        : 2131
  125. Stream size                              : 13.6 MiB (0%)
  126. Title                                    : 繁中
  127. Language                                 : Chinese
  128. Default                                  : No
  129. Forced                                   : No
  130. Menu
  131. 00:00:00.000                             : en:Chapter 01 / en:第 01 章
  132. 00:04:36.818                             : en:Chapter 02
  133. 00:09:16.639                             : en:Chapter 03
  134. 00:14:39.587                             : en:Chapter 04
  135. 00:21:55.689                             : en:Chapter 05
  136. 00:26:34.342                             : en:Chapter 06
  137. 00:34:23.895                             : en:Chapter 07
  138. 00:41:06.964                             : en:Chapter 08
  139. 00:48:30.824                             : en:Chapter 09
  140. 00:56:45.652                             : en:Chapter 10
  141. 01:05:11.073                             : en:Chapter 11
  142. 01:11:21.902                             : en:Chapter 12
  143. 01:19:30.724                             : en:Chapter 13
  144. 01:25:00.887                             : en:Chapter 14
  145. 01:31:49.837                             : en:Chapter 15
  146. 01:37:32.888                             : en:Chapter 16
  147. 01:44:44.736                             : en:Chapter 17
  148. 01:49:07.707                             : en:Chapter 18





此处一般会放置磁力链或种子下载链接,不过此链接需要注册会员才能看到,点击“立即注册”
磁力链下载【下载链接仅对注册会员开放,登陆后可见】
BT9527电影天堂 1、BT9527电影天堂提供的BT文件均来源于互联网抓取,只供网友学习交流、技术提升使用。
2、我们遵守BitTorrent点对点协议原则,任何版权问题请联系原资源发布商,我们不处理任何版权纠纷,谢谢!如有争议请联系邮箱:BT9527#hotmail.com(#换成@)
3、如果您发现某页面或地址有错误,请联系站长邮箱BT9527#hotmail.com(#换成@),我们会尽快处理。您的热心是对BT9527电影天堂最大的支持。
4、本站建议去正规影院观看电影以支持电影行业发展。
最新回复 (0)

你可以在 登录 or 注册 后,对此帖发表评论!

返回
发新帖