无名女尸[中英字幕].The.Autopsy.of.Jane.Doe.2016.Open.Matte.BluRay.1080p.x265.10bit-MiniHD 4.73GB

版主小s 3月前 203

✔资源类型:暂未分类   ✔电影年份:2016   ✔电影地区:欧美   ✔电影分类:恐怖

◎标  题 无名女尸
◎译  名 验尸官(台) / 无名尸诅咒(港) / 尸检无名女尸
◎片  名 The Autopsy of Jane Doe
◎年  代 2016
◎产  地 英国
◎类  别 恐怖
◎语  言 英语
◎上映日期 2016-09-09(多伦多电影节) / 2016-12-21(美国) / 2017-03-31(英国)
◎IMDb评分 6.8/10 (109050人评价)
◎IMDb链接 https://www.imdb.com/title/tt3289956/
◎豆瓣评分 7.6/10 (101334人评价)
◎豆瓣链接 https://movie.douban.com/subject/26339213/
◎片  长 86分钟(网络版)
◎导  演 安德烈·艾弗道夫 André Øvredal
◎编  剧 伊恩·B·戈德堡 Ian B. Goldberg
       理查德·纳英 Richard Naing
       埃里克·伊恩·戈德堡 Eric Ian Goldberg
◎演  员 埃米尔·赫斯基 Emile Hirsch
       布莱恩·考克斯 Brian Cox
       奥菲利亚·拉维邦德 Ophelia Lovibond
       迈克尔·麦克埃尔哈顿 Michael McElhatton
       奥尔雯·凯瑟琳·凯莉 Olwen Catherine Kelly
       帕克·索耶 Parker Sawyers
       简·佩里 Jane Perry
       桑德·朱里亚 Saunder Jurriaans
       丹尼·本斯 Danny Bensi

◎标  签 恐怖 / 惊悚 / 无名女尸 / 悬疑 / 宗教 / 英国 / 女巫 / 解剖

◎简  介
  奥斯丁(埃米尔·赫斯基 Emile Hirsch 饰)和父亲汤米(布莱恩·考克斯 Brian Cox 饰)同为镇上的验尸官,某天晚上,刑警谢尔顿(迈克尔·麦克埃尔哈顿 Michael McElhatton 饰)送来了一具无名女尸,希望汤米和奥斯丁能够在天亮之前弄清楚她身上的秘密。                                    
                                奇怪的是,这具女尸身上没有任何的淤青或伤口,然而她的内脏和骨骼却伤痕累累,很显然生前遭到了残酷的虐待。在解剖的过程中,难以用科学解释的谜团越来越多,挑战着汤米丰富的经验和好奇心,而屋外忽然降下的暴雨亦给这个不平凡的晚上带来了一丝阴森的气氛。行踪诡异的人影,忽近忽远的脚步,似真似幻的可怕光景,很快,父子两人便发现,他们要做的最重要的事情并不是解开女尸之谜,而是尽快的逃离她,逃得越远越好。
  1. ##### MediaInfo ######
  2. General
  3. Unique ID                                : 250175992378461419112946058720866398667 (0xBC3624BCFEED4CB61EED4BE10286F1CB)
  4. Complete name                            : The.Autopsy.of.Jane.Doe.2016.Open.Matte.BluRay.1080p.x265.10bit-MiniHD.mkv
  5. Format                                   : Matroska
  6. Format version                           : Version 4
  7. File size                                : 4.73 GiB
  8. Duration                                 : 1 h 26 min
  9. Overall bit rate                         : 7 827 kb/s
  10. Encoded date                             : UTC 2018-06-13 09:14:41
  11. Writing application                      : mkvmerge v24.0.0 ('Beyond The Pale') 64-bit
  12. Writing library                          : libebml v1.3.6 + libmatroska v1.4.9
  13. Video
  14. ID                                       : 1
  15. Format                                   : HEVC
  16. Format/Info                              : High Efficiency Video Coding
  17. Format profile                           : Main 10@L4.1@High
  18. Codec ID                                 : V_MPEGH/ISO/HEVC
  19. Duration                                 : 1 h 26 min
  20. Bit rate                                 : 7 177 kb/s
  21. Width                                    : 1 920 pixels
  22. Height                                   : 1 080 pixels
  23. Display aspect ratio                     : 16:9
  24. Frame rate mode                          : Constant
  25. Frame rate                               : 23.976 (24000/1001/53354) FPS
  26. Color space                              : YUV
  27. Chroma subsampling                       : 4:2:0
  28. Bit depth                                : 10 bits
  29. Bits/(Pixel*Frame)                       : 0.144
  30. Stream size                              : 4.34 GiB (92%)
  31. Writing library                          : x265 2.8+1-478bfe2b7673:[Windows][GCC 7.3.0][64 bit] 10bit
  32. Encoding settings                        : cpuid=533541111039 / frame-threads=3 / numa-pools=8 / wpp / no-pmode / no-pme / no-psnr / no-ssim / log-level=2 / input-csp=1 / input-res=1920x1080 / interlace=0 / total-frames=124499 / level-idc=0 / high-tier=1 / uhd-bd=0 / ref=5 / no-allow-non-conformance / no-repeat-headers / annexb / no-aud / no-hrd / info / hash=0 / no-temporal-layers / no-open-gop / min-keyint=1 / keyint=360 / gop-lookahead=0 / bframes=8 / b-adapt=2 / b-pyramid / bframe-bias=0 / rc-lookahead=48 / lookahead-slices=4 / NTMzNTQ=uuDQuD2mJt9fsCf / scenecut=40 / radl=0 / no-intra-refresh / ctu=32 / min-cu-size=8 / no-rect / no-amp / max-tu-size=32 / tu-inter-depth=2 / tu-intra-depth=2 / limit-tu=4 / rdoq-level=1 / dynamic-rd=0.00 / no-ssim-rd / signhide / no-tskip / nr-intra=0 / nr-inter=0 / no-constrained-intra / no-strong-intra-smoothing / max-merge=3 / limit-refs=2 / limit-modes / me=3 / subme=5 / merange=25 / temporal-mvp / weightp / weightb / no-analyze-src-pics / deblock=-1:-1 / no-sao / no-sao-non-deblock / rd=4 / no-early-skip / no-rskip / no-fast-intra / no-tskip-fast / no-cu-lossless / b-intra / no-splitrd-skip / rdpenalty=1 / psy-rd=2.00 / psy-rdoq=5.00 / no-rd-refine / no-lossless / cbqpoffs=-3 / crqpoffs=-3 / rc=crf / crf=18.0 / qcomp=0.65 / qpstep=4 / stats-write=0 / stats-read=0 / vbv-maxrate=40000 / vbv-bufsize=40000 / vbv-init=0.9 / crf-max=0.0 / crf-min=0.0 / ipratio=1.40 / pbratio=1.30 / aq-mode=2 / aq-strength=0.80 / cutree / zone-count=0 / no-strict-cbr / qg-size=32 / no-rc-grain / qpmax=69 / qpmin=0 / no-const-vbv / sar=1 / overscan=0 / videoformat=5 / range=0 / colorprim=1 / transfer=1 / colormatrix=1 / chromaloc=0 / display-window=0 / max-cll=0,0 / min-luma=0 / max-luma=1023 / log2-max-poc-lsb=8 / vui-timing-info / vui-hrd-info / slices=1 / no-opt-qp-pps / no-opt-ref-list-length-pps / no-multi-pass-opt-rps / scenecut-bias=0.05 / no-opt-cu-delta-qp / no-aq-motion / no-hdr / no-hdr-opt / no-dhdr10-opt / no-idr-recovery-sei / analysis-reuse-level=5 / scale-factor=0 / refine-intra=0 / refine-inter=0 / refine-mv=0 / no-limit-sao / ctu-info=0 / no-lowpass-dct / refine-mv-type=0 / copy-pic=1 / max-ausize-factor=1.0 / no-dynamic-refine / no-single-sei
  33. Default                                  : Yes
  34. Forced                                   : No
  35. Color range                              : Limited
  36. Color primaries                          : BT.709
  37. Transfer characteristics                 : BT.709
  38. Matrix coefficients                      : BT.709
  39. Audio
  40. ID                                       : 2
  41. Format                                   : AC-3
  42. Format/Info                              : Audio Coding 3
  43. Commercial name                          : Dolby Digital
  44. Codec ID                                 : A_AC3
  45. Duration                                 : 1 h 26 min
  46. Bit rate mode                            : Constant
  47. Bit rate                                 : 640 kb/s
  48. Channel(s)                               : 6 channels
  49. Channel layout                           : L R C LFE Ls Rs
  50. Sampling rate                            : 48.0 kHz
  51. Frame rate                               : 31.250 FPS (1536 SPF)
  52. Compression mode                         : Lossy
  53. Stream size                              : 395 MiB (8%)
  54. Language                                 : English
  55. Service kind                             : Complete Main
  56. Default                                  : Yes
  57. Forced                                   : No
  58. Text #1
  59. ID                                       : 3
  60. Format                                   : PGS
  61. Muxing mode                              : zlib
  62. Codec ID                                 : S_HDMV/PGS
  63. Codec ID/Info                            : Picture based subtitle format used on BDs/HD-DVDs
  64. Bit rate                                 : 0 b/s
  65. Count of elements                        : 1
  66. Stream size                              : 949 KiB (0%)
  67. Language                                 : English
  68. Default                                  : Yes
  69. Forced                                   : No
  70. Text #2
  71. ID                                       : 4
  72. Format                                   : PGS
  73. Muxing mode                              : zlib
  74. Codec ID                                 : S_HDMV/PGS
  75. Codec ID/Info                            : Picture based subtitle format used on BDs/HD-DVDs
  76. Duration                                 : 1 h 20 min
  77. Bit rate                                 : 15.7 kb/s
  78. Count of elements                        : 1458
  79. Stream size                              : 9.04 MiB (0%)
  80. Language                                 : Chinese
  81. Default                                  : No
  82. Forced                                   : No





此处一般会放置磁力链或种子下载链接,不过此链接需要注册会员才能看到,点击“立即注册”
磁力链下载【下载链接仅对注册会员开放,登陆后可见】
BT9527电影天堂 1、BT9527电影天堂提供的BT文件均来源于互联网抓取,只供网友学习交流、技术提升使用。
2、我们遵守BitTorrent点对点协议原则,任何版权问题请联系原资源发布商,我们不处理任何版权纠纷,谢谢!如有争议请联系邮箱:BT9527#hotmail.com(#换成@)
3、如果您发现某页面或地址有错误,请联系站长邮箱BT9527#hotmail.com(#换成@),我们会尽快处理。您的热心是对BT9527电影天堂最大的支持。
4、本站建议去正规影院观看电影以支持电影行业发展。
最新回复 (0)

你可以在 登录 or 注册 后,对此帖发表评论!

返回
发新帖